Showing posts with label Εκδήλωση. Show all posts
Showing posts with label Εκδήλωση. Show all posts

Λάρισα 6/12/2019 : Λιτανεία του Αγίου Νικολάου - Ηπείρου & Παπαναστασίου





6/12/2019 
Λιτανεία του Αγίου Νικολάου
Ηπείρου & Παπαναστασίου Λάρισα 

Complete name :DCIM\112_ZOOM\ZOOM0002.MOV 
Format : MPEG-4 
Format profile : QuickTime 
Codec ID : qt 0000.00 (qt ) 
File size : 620 MiB 
Duration : 2 min 57 s 
Overall bit rate mode : Constant 
Overall bit rate : 29.2 Mb/s 





Video 
ID : 1 
Format : AVC 
Format/Info : Advanced Video Codec 
Format profile : Main@L5 
Format settings : CABAC / 1 Ref Frames 
Format settings, CABAC : Yes 
Format settings, Reference frames : 1 frame 
Format settings, GOP : M=1, N=8 
Codec ID : avc1 
Codec ID/Info : Advanced Video Coding 
Duration : 2 min 57 s 
Bit rate mode : Constant 
Bit rate : 23.4 Mb/s 
Width : 2 304 pixels 
Clean aperture width : 2 304 pixels 
Height : 1 296 pixels 
Clean aperture height : 1 296 pixels 
Display aspect ratio : 16:9 
Frame rate mode : Constant 
Frame rate : 25.000 FPS 
Color space : YUV 
Chroma subsampling : 4:2:0 
Bit depth : 8 bits 
Scan type : Progressive 
Bits/(Pixel*Frame) : 0.313 
Stream size : 509 MiB (82%) 
Title : Ambarella AVC / Ambarella AVC 
Language : English 



Color range : Full 
Codec configuration box : avcC 



Audio 
ID : 2 
Format : PCM 
Format settings : Little / Signed 
Codec ID : lpcm 
Duration : 2 min 57 s 
Bit rate mode : Constant 
Bit rate : 4 608 kb/s 
Channel(s) : 2 channels 
Channel layout : L R 
Sampling rate : 96.0 kHz 
Bit depth : 24 bits 
Stream size : 97.7 MiB (16%) 
Title : Ambarella AAC / Ambarella AAC 
Language : English

Εκδήλωση Westnet Distribution και HP Πέμπτη 24 Οκτωβρίου 2019 15:00 στο Φρούριο Λάρισας




H Westnet Distribution και η HP είχαν την τιμή να μας προσκαλέσουν στην εκδήλωση που πραγματοποιήθηκε την Πέμπτη 24 Οκτωβρίου 2019 στις 15:00 στο Φρούριο στη Λάρισα.

Είδαμε μαζί τις τελευταίες εξελίξεις στα προϊόντα της HP, τις ολοκληρωμένες υπηρεσίες που προσφέρει και πόσο μπορoύν να συμβάλουν στην αποδοτική και αποτελεσματική καθημερινή μας εργασία.

Genova città deserta Seconda parte rimaniamo a casa Μένουμε Σπίτι και εμείς

rimaniamo a casa Seconda parte Genova città deserta #StayHome Γένοβα δεύτερο μέρος Μένουμε Σπίτι και εμείς 2nd Part desert Genoa Geno...