Showing posts with label Sony 18-55mm f/3.5-5.6 SAM. Show all posts
Showing posts with label Sony 18-55mm f/3.5-5.6 SAM. Show all posts

Sony SLT-A33 + Sony SAL1855 #002 1080 25fps



Clouds
Camera :Sony SLT-A33
Lens : Sony 18-55mm f/3.5-5.6 SAM @ 35mm
Video test #002
FHD 1080 25fps

Complete name : AVCHD\BDMV\STREAM\00177.MTS
Format : BDAV
Format/Info : Blu-ray Video
File size : 125 MiB
Duration : 1 min 1 s
Overall bit rate mode : Variable
Overall bit rate : 17.0 Mb/s
Maximum Overall bit rate : 18.0 Mb/s
Recorded date : 2019-05-12 15:34:27+02:00
Writing application : Sony SLT-A33

Video
ID : 4113 (0x1011)
Menu ID : 1 (0x1)
Format : AVC
Format/Info : Advanced Video Codec
Format profile : High@L4
Format settings : CABAC / 2 Ref Frames
Format settings, CABAC : Yes
Format settings, Reference frames : 2 frames
Format settings, GOP : M=2, N=13
Codec ID : 27
Duration : 1 min 1 s
Bit rate mode : Variable
Bit rate : 16.0 Mb/s
Width : 1 920 pixels
Height : 1 080 pixels
Display aspect ratio : 16:9
Frame rate : 25.000 FPS
Color space : YUV
Chroma subsampling : 4:2:0
Bit depth : 8 bits
Scan type : Interlaced
Scan type, store method : Separated fields
Scan order : Top Field First
Bits/(Pixel*Frame) : 0.309
Stream size : 118 MiB (94%)
IrisFNumber : 5.600000

Audio
ID : 4352 (0x1100)
Menu ID : 1 (0x1)
Format : AC-3
Format/Info : Audio Coding 3
Commercial name : Dolby Digital
Codec ID : 129
Duration : 1 min 1 s
Bit rate mode : Constant
Bit rate : 256 kb/s
Channel(s) : 2 channels
Channel layout : L R
Sampling rate : 48.0 kHz
Frame rate : 31.250 FPS (1536 SPF)
Bit depth : 16 bits
Compression mode : Lossy
Delay relative to video : -80 ms
Stream size : 1.89 MiB (2%)
Service kind : Complete Main

Text
ID : 4608 (0x1200)
Menu ID : 1 (0x1)
Format : PGS
Codec ID : 144
Duration : 1 min 1 s
Delay relative to video : -80 ms

Genova città deserta Seconda parte rimaniamo a casa Μένουμε Σπίτι και εμείς

rimaniamo a casa Seconda parte Genova città deserta #StayHome Γένοβα δεύτερο μέρος Μένουμε Σπίτι και εμείς 2nd Part desert Genoa Geno...