Showing posts with label Nikon1 j1. Show all posts
Showing posts with label Nikon1 j1. Show all posts

Full moon Nikon 1 J1 - PARAGON f/8 500mm f72 T2



Full moon 14/9/2019
Camera : Nikon 1 J1 in manual , shutter100, iso 100.
Lens: PARAGON f/8 500mm f72 T2 - @ f/11
video  test #002 1920 1080 60i
1:8 f= 500mm



Complete name : DCIM\116NC1J1\DSC_1781.MOV
Format : MPEG-4
Format profile : QuickTime
Codec ID : qt 2007.09 (qt /niko)
File size : 171 MiB
Duration : 7 min 37 s
Overall bit rate mode : Variable
Overall bit rate : 3 135 kb/s
Encoded date : UTC 2019-09-14 02:40:30
NCDT : NCTG

Video
ID : 1
Format : AVC
Format/Info : Advanced Video Codec
Format profile : High@L4.1
Format settings : CABAC / 2 Ref Frames
Format settings, CABAC : Yes
Format settings, Reference frames : 2 frames
Codec ID : avc1
Codec ID/Info : Advanced Video Coding
Duration : 7 min 37 s
Bit rate : 3 003 kb/s
Width : 1 920 pixels
Height : 1 080 pixels
Display aspect ratio : 16:9
Frame rate mode : Constant
Frame rate : 59.940 (60000/1001) FPS
Color space : YUV
Chroma subsampling : 4:2:0
Bit depth : 8 bits
Scan type : Interlaced
Scan type, store method : Separated fields
Scan order : Top Field First
Bits/(Pixel*Frame) : 0.024
Stream size : 164 MiB (96%)
Language : English
Encoded date : UTC 2019-09-14 02:40:30

Color range : Full
Transfer characteristics : BT.470 System M
Matrix coefficients : BT.470 System B/G
Codec configuration box : avcC

Audio
ID : 2
Format : AAC LC
Format/Info : Advanced Audio Codec Low Complexity
Codec ID : mp4a-40-2
Duration : 7 min 37 s
Source duration : 7 min 37 s
Bit rate mode : Variable
Bit rate : 128 kb/s
Maximum bit rate : 192 kb/s
Channel(s) : 2 channels
Channel layout : L R
Sampling rate : 48.0 kHz
Frame rate : 46.875 FPS (1024 SPF)
Compression mode : Lossy
Stream size : 6.95 MiB (4%)
Source stream size : 6.95 MiB (4%)
Language : English
Encoded date : UTC 2019-09-14 02:40:30

Εκδήλωση πιστοποίησης σεμιναρίου 50 ωρών (2018 2019)



Η προσωπική και επαγγελματική σχέση των άλλων και του κόσμου: Οι θέσεις της ζωής

 Σεμινάριο 2018-2019 
Κοινωνιολόγος-σύμβουλος Διονυσία Τριπολίτου

Πέμπτη 7 Μαρτίου 2019 και ώρα 18:00-21:00

Επιμελητήριο Λάρισας

Nikon 1 J1 video test #001 1920 1080 60i low light at night



Alexander the Great  street Larissa Greece at night
Nikon 1 J1 video test #001 1920 1080 60i

Complete name : NIKON1-J1\VIDEO\DSC_1504.MOV
Format : MPEG-4
Format profile : QuickTime
Codec ID : qt 2007.09 (qt /niko)
File size : 59.3 MiB
Duration : 20 s 187 ms
Overall bit rate mode : Variable
Overall bit rate : 24.6 Mb/s
Encoded date : UTC 2019-02-01 23:15:16
NCDT : NCTG

Video
ID : 1
Format : AVC
Format/Info : Advanced Video Codec
Format profile : High@L4.1
Format settings : CABAC / 2 Ref Frames
Format settings, CABAC : Yes
Format settings, RefFrames : 2 frames
Codec ID : avc1
Codec ID/Info : Advanced Video Coding
Duration : 20 s 187 ms
Bit rate : 24.4 Mb/s
Width : 1 920 pixels
Height : 1 080 pixels
Display aspect ratio : 16:9
Frame rate mode : Constant
Frame rate : 59.940 (60000/1001) FPS
Color space : YUV
Chroma subsampling : 4:2:0
Bit depth : 8 bits
Scan type : Interlaced
Scan type, store method : Separated fields
Scan order : Top Field First
Bits/(Pixel*Frame) : 0.196
Stream size : 58.7 MiB (99%)
Language : English
Encoded date : UTC 2019-02-01 23:15:16
Tagged date : UTC 2019-02-01 23:15:16
Color range : Full
Transfer characteristics : BT.470 System M
Matrix coefficients : BT.470 System B/G
Codec configuration box : avcC

Audio
ID : 2
Format : AAC LC
Format/Info : Advanced Audio Codec Low Complexity
Codec ID : mp4a-40-2
Duration : 20 s 187 ms
Source duration : 20 s 181 ms
Bit rate mode : Variable
Bit rate : 128 kb/s
Maximum bit rate : 192 kb/s
Channel(s) : 2 channels
Channel layout : L R
Sampling rate : 48.0 kHz
Frame rate : 46.875 FPS (1024 SPF)
Compression mode : Lossy
Stream size : 313 KiB (1%)
Source stream size : 313 KiB (1%)
Language : English

Genova città deserta Seconda parte rimaniamo a casa Μένουμε Σπίτι και εμείς

rimaniamo a casa Seconda parte Genova città deserta #StayHome Γένοβα δεύτερο μέρος Μένουμε Σπίτι και εμείς 2nd Part desert Genoa Geno...