Showing posts with label nikon ai to pentax pq. Show all posts
Showing posts with label nikon ai to pentax pq. Show all posts

B. Sunset Clouds : Pentax Q video test with ARSAT H 50mm 1:2 Nikon AI adapted to Pq 1080 @ 30fps




Sunset Clouds Larissa Greece Camera : Pentax Q 12.4 Mp 1/2.3-inch CMOS Crop factor 5.62 Lens : ARSAT H 50mm f/2 Ø52 Nikon AI @ f/2 326mm equivalent 35mm Mode : M ISO 125 EV 0,0 Shutter 1/50 Video Stabilization OFF Video 1920x1080 @ 30fps Complete name : Desktop\IMGP8634.MOV Format : MPEG-4 Format profile : QuickTime Codec ID : qt 2007.09 (qt /####) File size : 154 MiB Duration : 1 min 31 s Overall bit rate mode : Variable Overall bit rate : 14.1 Mb/s thmb : AX Video ID : 1 Format : AVC Format/Info : Advanced Video Codec Format profile : Main@L4 Format settings : CABAC / 2 Ref Frames Format settings, CABAC : Yes Format settings, RefFrames : 2 frames Codec ID : avc1 Codec ID/Info : Advanced Video Coding Duration : 1 min 31 s Source duration : 1 min 31 s Bit rate mode : Variable Bit rate : 12.5 Mb/s Maximum bit rate : 20.0 Mb/s Width : 1 920 pixels Height : 1 080 pixels Display aspect ratio : 16:9 Frame rate mode : Constant Frame rate : 29.970 (30000/1001) FPS Color space : YUV Chroma subsampling : 4:2:0 Bit depth : 8 bits Scan type : Progressive Bits/(Pixel*Frame) : 0.202 Stream size : 137 MiB (89%) Source stream size : 137 MiB (89%) Language : English mdhd_Duration : 91647 Codec configuration box : avcC Audio ID : 2 Format : PCM Format settings : Little / Signed Codec ID : sowt Duration : 1 min 31 s Bit rate mode : Constant Bit rate : 1 536 kb/s Channel(s) : 2 channels Channel layout : L R Sampling rate : 48.0 kHz Bit depth : 16 bits Stream size : 16.8 MiB (11%) Language : English mdhd_Duration : 91647

A. Christmass Sunset Clouds : Pentax Q video test with ARSAT H 50mm 1:2 Nikon AI to Pq 1080 @ 30fps




Christmass Sunset Clouds Larissa Greece Camera : Pentax Q 12.4 Mp 1/2.3-inch CMOS Crop factor 5.62 Lens : ARSAT H 50mm f/2 Ø52 Nikon AI @ f/2 326mm equivalent 35mm Helios 81H Mode : M ISO 125 EV 0,0 Shutter 1/50 Video Stabilization OFF Video 1920x1080 @ 30fps Complete name : Desktop\IMGP8633.MOV Format : MPEG-4 Format profile : QuickTime Codec ID : qt 2007.09 (qt /####) File size : 143 MiB Duration : 1 min 24 s Overall bit rate mode : Variable Overall bit rate : 14.1 Mb/s thmb : AX Video ID : 1 Format : AVC Format/Info : Advanced Video Codec Format profile : Main@L4 Format settings : CABAC / 2 Ref Frames Format settings, CABAC : Yes Format settings, RefFrames : 2 frames Codec ID : avc1 Codec ID/Info : Advanced Video Coding Duration : 1 min 24 s Source duration : 1 min 24 s Bit rate mode : Variable Bit rate : 12.5 Mb/s Maximum bit rate : 20.0 Mb/s Width : 1 920 pixels Height : 1 080 pixels Display aspect ratio : 16:9 Frame rate mode : Constant Frame rate : 29.970 (30000/1001) FPS Color space : YUV Chroma subsampling : 4:2:0 Bit depth : 8 bits Scan type : Progressive Bits/(Pixel*Frame) : 0.202 Stream size : 127 MiB (89%) Source stream size : 127 MiB (89%) Language : English mdhd_Duration : 84863 Codec configuration box : avcC Audio ID : 2 Format : PCM Format settings : Little / Signed Codec ID : sowt Duration : 1 min 24 s Bit rate mode : Constant Bit rate : 1 536 kb/s Channel(s) : 2 channels Channel layout : L R Sampling rate : 48.0 kHz Bit depth : 16 bits Stream size : 15.5 MiB (11%) Language : English mdhd_Duration : 84863

Genova città deserta Seconda parte rimaniamo a casa Μένουμε Σπίτι και εμείς

rimaniamo a casa Seconda parte Genova città deserta #StayHome Γένοβα δεύτερο μέρος Μένουμε Σπίτι και εμείς 2nd Part desert Genoa Geno...