Showing posts with label Rain. Show all posts
Showing posts with label Rain. Show all posts

Morning Rain Larissa Greece 4/10/2019 - ( Sanyo Xacti VPC-CG100 ) Video test #006



Morning Rain
 Larissa - Greece
Sanyo Xacti VPC-CG100
Video test #006
Πρωινη βροχη Λαρισα
Πρωινή βροχή Λάρισα

Complete name : DCIM\100SANYO\SANY0314.MP4
Format : MPEG-4
Format profile : Base Media / Version 2
Codec ID : mp42 (mp42/avc1)
File size : 103 MiB
Duration : 1 min 4 s
Overall bit rate mode : Variable
Overall bit rate : 13.5 Mb/s
Movie_More : SANYO DIGITAL CAMERA CG100
Encoded date : UTC 2019-10-04 11:32:30

Origin : Digital Camera
TAGS : O DIGITAL CAMERA

Video
ID : 1
Format : AVC
Format/Info : Advanced Video Codec
Format profile : Baseline@L4
Format settings : 2 Ref Frames
Format settings, CABAC : No
Format settings, Reference frames : 2 frames
Format settings, GOP : M=1, N=30
Codec ID : avc1
Codec ID/Info : Advanced Video Coding
Duration : 1 min 4 s
Bit rate : 13.1 Mb/s
Width : 1 920 pixels
Height : 1 080 pixels
Display aspect ratio : 16:9
Frame rate mode : Constant
Frame rate : 29.970 (30000/1001) FPS
Color space : YUV
Chroma subsampling : 4:2:0
Bit depth : 8 bits
Scan type : Progressive
Bits/(Pixel*Frame) : 0.211
Stream size : 100 MiB (97%)
Language : English
Encoded date : UTC 2019-10-04 11:32:30
Color range : Full
Color primaries : BT.709
Transfer characteristics : BT.709
Matrix coefficients : BT.709
Codec configuration box : avcC

Audio
ID : 2
Format : AAC LC
Format/Info : Advanced Audio Codec Low Complexity
Codec ID : mp4a-40-2
Duration : 1 min 4 s
Source duration : 1 min 4 s
Bit rate mode : Variable
Bit rate : 256 kb/s
Maximum bit rate : 192 kb/s
Channel(s) : 2 channels
Channel layout : L R
Sampling rate : 48.0 kHz
Frame rate : 46.875 FPS (1024 SPF)
Compression mode : Lossy
Stream size : 1.95 MiB (2%)
Source stream size : 1.95 MiB (2%)
Language : English
Encoded date : UTC 2019-10-04 11:32:30

Video Stabilazer OFF
Exposure A Aperture - f/3.5 - iso 200 Shuter auto ( 1/30 ~ 1/1000 )
Focus Auto - ISO 50

Rain Larissa Greece 16/08/2019 - Samsung S7 Edge UHD 4k




Rain Larissa Greece
16/08/2019
Samsung S7 Edge UHD 4k

Complete name : samsung S7\Camera\20190816_221907.mp4
Format : MPEG-4
Format profile : Base Media / Version 2
Codec ID : mp42 (isom/mp42)
File size : 119 MiB
Duration : 20 s 595 ms
Overall bit rate : 48.3 Mb/s
Encoded date : UTC 2019-08-16 19:19:28
xyz : +39.6346+022.4151/
com.android.version : 8.0.0

Video
ID : 1
Format : AVC
Format/Info : Advanced Video Codec
Format profile : High@L5.1
Format settings : CABAC / 1 Ref Frames
Format settings, CABAC : Yes
Format settings, Reference frames : 1 frame
Format settings, GOP : M=1, N=30
Codec ID : avc1
Codec ID/Info : Advanced Video Coding
Duration : 20 s 595 ms
Source duration : 20 s 608 ms
Bit rate : 48.0 Mb/s
Width : 3 840 pixels
Height : 2 160 pixels
Display aspect ratio : 16:9
Frame rate mode : Variable
Frame rate : 30.000 FPS
Minimum frame rate : 21.666 FPS
Maximum frame rate : 30.131 FPS
Color space : YUV
Chroma subsampling : 4:2:0
Bit depth : 8 bits
Scan type : Progressive
Bits/(Pixel*Frame) : 0.193
Stream size : 118 MiB (99%)
Source stream size : 118 MiB (99%)
Title : VideoHandle
Language : English
Encoded date : UTC 2019-08-16 19:19:28
mdhd_Duration : 20595
Codec configuration box : avcC

Audio
ID : 2
Format : AAC LC
Format/Info : Advanced Audio Codec Low Complexity
Codec ID : mp4a-40-2
Duration : 20 s 523 ms
Bit rate mode : Constant
Bit rate : 256 kb/s
Channel(s) : 2 channels
Channel layout : L R
Sampling rate : 48.0 kHz
Frame rate : 46.875 FPS (1024 SPF)
Compression mode : Lossy
Stream size : 641 KiB (1%)
Title : SoundHandle
Language : English
Encoded date : UTC 2019-08-16 19:19:28

Popular Posts