Showing posts with label Zoom Q8. Show all posts
Showing posts with label Zoom Q8. Show all posts

Σαββατόβραδο στο Πάρκο των Ευχών Λάρισας 2019 14/12 wises park Larissa





Σαββατόβραδο στο Πάρκο των Ευχών Λάρισα 14/12/2019 Zoom Q8 auto mode Don’t forget to click the bell to turn on post notifications! Nikolaos Instagram: https://www.instagram.com/sakellarisnikolaos/ Twitter: https://twitter.com/SakellarisNiko Facebook: https://www.facebook.com/nikolaos.sakellaris/ Blog: https://video-photo-blog.blogspot.com/ Το πάρκο των ευχών 2017 Τα Χριστούγεννα στη Λάρισα είναι διαφορετικά!!! Για έναν ολόκληρο μήνα, ο Δήμος Λαρισαίων λειτουργεί το Πάρκο των Ευχών, όπου κάθε όνειρο και κάθε ευχή γίνετε πραγματικότητα! Η Λίμνη των Χριστουγέννων με το τεράστιο δέντρο της, το πολύχρωμο Fun Park, το τρενάκι του Βόρειου Πόλου, το Σπίτι του Άη Βασίλη, το Εργαστήρι των Ξωτικών, η Ακαδημία των Μικρών Μάγων, το Παλάτι της Βασίλισσας του Πάγου και ένα σωρό άλλες εκπλήξεις, στο Πάρκο Αλκαζάρ, φωτάκια, έλατα, χιόνι, αστέρια, άγγελοι, μπάλες… προσφέρει σε όλους μοναδικές στιγμές. Ξετρελαίνει τους μικρούς και κάνει τους μεγάλους να αφεθούν στη χαρά και τη λάμψη των γιορτών.

Λάρισα 6/12/2019 : Λιτανεία του Αγίου Νικολάου - Ηπείρου & Παπαναστασίου





6/12/2019 
Λιτανεία του Αγίου Νικολάου
Ηπείρου & Παπαναστασίου Λάρισα 

Complete name :DCIM\112_ZOOM\ZOOM0002.MOV 
Format : MPEG-4 
Format profile : QuickTime 
Codec ID : qt 0000.00 (qt ) 
File size : 620 MiB 
Duration : 2 min 57 s 
Overall bit rate mode : Constant 
Overall bit rate : 29.2 Mb/s 





Video 
ID : 1 
Format : AVC 
Format/Info : Advanced Video Codec 
Format profile : Main@L5 
Format settings : CABAC / 1 Ref Frames 
Format settings, CABAC : Yes 
Format settings, Reference frames : 1 frame 
Format settings, GOP : M=1, N=8 
Codec ID : avc1 
Codec ID/Info : Advanced Video Coding 
Duration : 2 min 57 s 
Bit rate mode : Constant 
Bit rate : 23.4 Mb/s 
Width : 2 304 pixels 
Clean aperture width : 2 304 pixels 
Height : 1 296 pixels 
Clean aperture height : 1 296 pixels 
Display aspect ratio : 16:9 
Frame rate mode : Constant 
Frame rate : 25.000 FPS 
Color space : YUV 
Chroma subsampling : 4:2:0 
Bit depth : 8 bits 
Scan type : Progressive 
Bits/(Pixel*Frame) : 0.313 
Stream size : 509 MiB (82%) 
Title : Ambarella AVC / Ambarella AVC 
Language : English 



Color range : Full 
Codec configuration box : avcC 



Audio 
ID : 2 
Format : PCM 
Format settings : Little / Signed 
Codec ID : lpcm 
Duration : 2 min 57 s 
Bit rate mode : Constant 
Bit rate : 4 608 kb/s 
Channel(s) : 2 channels 
Channel layout : L R 
Sampling rate : 96.0 kHz 
Bit depth : 24 bits 
Stream size : 97.7 MiB (16%) 
Title : Ambarella AAC / Ambarella AAC 
Language : English

Genova città deserta Seconda parte rimaniamo a casa Μένουμε Σπίτι και εμείς

rimaniamo a casa Seconda parte Genova città deserta #StayHome Γένοβα δεύτερο μέρος Μένουμε Σπίτι και εμείς 2nd Part desert Genoa Geno...