Showing posts with label Night. Show all posts
Showing posts with label Night. Show all posts

Old photo cameras collection Panasonic HDC-SD9 video test 1080 25p


Old photo cameras collection Panasonic HDC-SD9 video test 1080 25p



Walking at my city at night i saw at Photo shop an old photo cameras collection so I tested my video camera Panasonic HDC-SD9 (video test 1080 25p)

Don’t forget to click the bell to turn on post notifications!

Nikolaos Instagram: https://www.instagram.com/sakellarisnikolaos/
Twitter: https://twitter.com/SakellarisNiko
Facebook: https://www.facebook.com/nikolaos.sakellaris/
Blog: https://video-photo-blog.blogspot.com/

Complete name : PANASONIC\HDC-SD9\)\00019.MTS 
Format : BDAV 
Format/Info : Blu-ray Video 
File size : 137 MiB 
Duration : 1 min 10 s 
Overall bit rate mode : Variable 
Overall bit rate : 16.3 Mb/s 
Maximum Overall bit rate : 18.0 Mb/s 

Video 
ID : 4113 (0x1011) 
Menu ID : 1 (0x1) 
Format : AVC 
Format/Info : Advanced Video Codec 
Format profile : High@L4 
Format settings : CABAC / 4 Ref Frames 
Format settings, CABAC : Yes 
Format settings, RefFrames : 4 frames 
Format settings, GOP : M=3, N=12 
Codec ID : 27 
Duration : 1 min 10 s 
Bit rate mode : Variable 
Bit rate : 15.3 Mb/s 
Maximum bit rate : 16.8 Mb/s 
Width : 1 920 pixels 
Height : 1 080 pixels 
Display aspect ratio : 16:9 
Frame rate : 25.000 FPS 
Color space : YUV 
Chroma subsampling : 4:2:0 
Bit depth : 8 bits 
Scan type : Interlaced 
Scan type, store method : Separated fields 
Scan order : Top Field First 
Bits/(Pixel*Frame) : 0.295 
Stream size : 129 MiB (94%) 

Audio 
ID : 4352 (0x1100) 
Menu ID : 1 (0x1) 
Format : AC-3 
Format/Info : Audio Coding 3 
Commercial name : Dolby Digital 
Codec ID : 129 
Duration : 1 min 10 s 
Bit rate mode : Constant 
Bit rate : 384 kb/s 
Channel(s) : 6 channels 
Channel layout : L R C LFE Ls Rs 
Sampling rate : 48.0 kHz 
Frame rate : 31.250 FPS (1536 SPF) 
Bit depth : 16 bits 
Compression mode : Lossy 
Delay relative to video : -80 ms 
Stream size : 3.23 MiB (2%) 
Service kind : Complete Main





old photo cameras collection,Panasonic HDC-SD9 night video test,Panasonic HDC-SD9 video test 1080 25p,Panasonic HDC-SD9,Panasonic HDC-SD9 video test 1080,Photo shop an old photo cameras collection



Drone at night Panasonic HDC-SD9 video test 1080 25p


Drone at night Panasonic HDC-SD9 video test 1080 25p



Walking at my city at night i saw a Drone filming a road music concert 
so I tested my camera Panasonic HDC-SD9 (video test 1080 25p)

Don’t forget to click the bell to turn on post notifications!

Nikolaos Instagram: https://www.instagram.com/sakellarisnikolaos/
Twitter: https://twitter.com/SakellarisNiko
Facebook: https://www.facebook.com/nikolaos.sakellaris/
Blog: https://video-photo-blog.blogspot.com/

Complete name : PANASONIC\HDC-SD9\\00017.MTS 
Format : BDAV 
Format/Info : Blu-ray Video 
File size : 138 MiB 
Duration : 1 min 9 s 
Overall bit rate mode : Variable 
Overall bit rate : 16.8 Mb/s 
Maximum Overall bit rate : 18.0 Mb/s 

Video 
ID : 4113 (0x1011) 
Menu ID : 1 (0x1) 
Format : AVC 
Format/Info : Advanced Video Codec 
Format profile : High@L4 
Format settings : CABAC / 4 Ref Frames 
Format settings, CABAC : Yes 
Format settings, RefFrames : 4 frames 
Format settings, GOP : M=3, N=12 
Codec ID : 27 
Duration : 1 min 9 s 
Bit rate mode : Variable 
Bit rate : 15.7 Mb/s 
Maximum bit rate : 16.8 Mb/s 
Width : 1 920 pixels 
Height : 1 080 pixels 
Display aspect ratio : 16:9 
Frame rate : 25.000 FPS 
Color space : YUV 
Chroma subsampling : 4:2:0 
Bit depth : 8 bits 
Scan type : Interlaced 
Scan type, store method : Separated fields 
Scan order : Top Field First 
Bits/(Pixel*Frame) : 0.303 
Stream size : 129 MiB (94%) 

Audio 
ID : 4352 (0x1100) 
Menu ID : 1 (0x1) 
Format : AC-3 
Format/Info : Audio Coding 3 
Commercial name : Dolby Digital 
Codec ID : 129 
Duration : 1 min 9 s 
Bit rate mode : Constant 
Bit rate : 384 kb/s 
Channel(s) : 6 channels 
Channel layout : L R C LFE Ls Rs 
Sampling rate : 48.0 kHz 
Frame rate : 31.250 FPS (1536 SPF) 
Bit depth : 16 bits 
Compression mode : Lossy 
Delay relative to video : -80 ms 
Stream size : 3.17 MiB (2%) 
Service kind : Complete Main



Drone at night filming a music concert,Panasonic HDC-SD9 night video test,Panasonic HDC-SD9 video test 1080 25p,Panasonic HDC-SD9,Panasonic HDC-SD9 video test 1080





TimeLapse : JVC Everio GZ-GX1 video test #003 50fps FHD




Night TimeLapse
JVC Everio GZ-GX1BEK
video test #001
50fps FHD 28.0 Mb/s
GZ-GX1 F/1.2

Complete name : JVC\GZ-GX1\VIDEO\00021.MTS
Format : BDAV
Format/Info : Blu-ray Video
File size : 14.1 MiB
Duration : 4 s 569 ms
Overall bit rate mode : Variable
Overall bit rate : 25.9 Mb/s
Maximum Overall bit rate : 28.0 Mb/s
Recorded date : 2019-05-17 21:39:33+02:00
Writing application : JVC

Video
ID : 4113 (0x1011)
Menu ID : 1 (0x1)
Format : AVC
Format/Info : Advanced Video Codec
Format profile : High@L4.2
Format settings : CABAC / 2 Ref Frames
Format settings, CABAC : Yes
Format settings, Reference frames : 2 frames
Format settings, GOP : M=3, N=12
Codec ID : 27
Duration : 4 s 520 ms
Bit rate mode : Variable
Bit rate : 24.6 Mb/s
Maximum bit rate : 26.8 Mb/s
Width : 1 920 pixels
Height : 1 080 pixels
Display aspect ratio : 16:9
Frame rate : 50.000 FPS
Color space : YUV
Chroma subsampling : 4:2:0
Bit depth : 8 bits
Scan type : Progressive
Bits/(Pixel*Frame) : 0.237
Stream size : 13.2 MiB (94%)

Audio
ID : 4352 (0x1100)
Menu ID : 1 (0x1)
Format : AC-3
Format/Info : Audio Coding 3
Commercial name : Dolby Digital
Codec ID : 129
Duration : 4 s 576 ms
Bit rate mode : Constant
Bit rate : 256 kb/s
Channel(s) : 2 channels
Channel layout : L R
Sampling rate : 48.0 kHz
Frame rate : 31.250 FPS (1536 SPF)
Compression mode : Lossy
Delay relative to video : -40 ms
Stream size : 143 KiB (1%)
Service kind : Complete Main

Text
ID : 4608 (0x1200)
Menu ID : 1 (0x1)
Format : PGS
Codec ID : 144
Duration : 4 s 295 ms
Delay relative to video : -40 ms
TimeLapse Everio GZ-GX1

Popular Posts