Showing posts with label Lumix H-FS1410 14-140MM. Show all posts
Showing posts with label Lumix H-FS1410 14-140MM. Show all posts

How to update Firmware on Sony NEX-5R camera to version 1.03 from 1.00




this video will help you how to update your NEX 5R camera to the newest firmware.
 on Sony NEX 5R Camera to version 1.03 from 1.00.
 By updating your NEX with the newest firmaware you will add the following features to your NEX 

Provides support for the following Fast Hybrid AF compliant and future compatible E mount lenses:
SELP18105G, SEL35F28Z, SEL55F18Z, SEL2470Z, SEL2870, SEL70200G
Note:For the following lenses, the Fast Hybrid AF is effective only in the central area of the frame.
SEL35F28Z, SEL55F18Z, SEL2470Z, SEL2870, SEL70200G
Provides support for the SEL20F28 and SEL1670Z Fast Hybrid AF compliant lenses
Adds the AF drive system for movies
Note:The AF drive system for movies is added in order to enhance the scalability of future E-mount systems.
Provides support for the following Fast Hybrid AF compliant lenses:
SEL1018, SEL35F18, SELP18200, SEL30M35, SEL50F18, SEL18200LE
Note:When using the SEL30M35, SEL50F18, and SEL18200LE lenses,
 please update the lens firmware to the latest available version.

File Name Update_NEX5RV103.exe
File Version 1.03
File Size 179.51 MB
Release Date 03-18-2014

Don’t forget to click the bell to turn on post notifications!

Nikolaos Instagram: https://www.instagram.com/sakellarisnikolaos/
Twitter: https://twitter.com/SakellarisNiko
Facebook: https://www.facebook.com/nikolaos.sakellaris/
Blog: https://video-photo-blog.blogspot.com/

filmed in 4k with Panasonic Lumix GX-80 & Lumix H-FS14140 14-140mm
Nikolaos Sakellaris


Confirm the firmware version of your camera

Follow the instructions
If the firmware version is Ver.1.03 or later, the update is not required.

Select Menu--) Setup--) Versionon the camera.
The firmware version is displayed as illustrated below.

Note:Please close all other application software before updating the firmware.
Power source for the camera
Fully charged rechargeable battery pack NP-FW50
USB cable supplied with the camera

Download

Do not remove the battery during the update;otherwise,
 the camera may become inoperable due to the sudden power shutdown.
Remove the memory card from the camera beforehand.

Download the Firmware Updater
Make sure that you are logged on as a user with administrative rights.
After reading the disclaimer, click the [Download] button below.
The download of the [Update_NEX5RV103.exe] file (179 MB (188.231.768 bytes)) will start.
Save the file on your computer.

Install
Close all currently running programs on your computer.
Double-click the [Update_NEX5RV103.exe] file you downloaded to start up the Firmware Updater.
 The Firmware Updater window will appear.

According to the instruction on the Firmware Updater window, select Menu--) Setup--)
 USB Connectionon the camera, and check if Mass Storageis selected.
If another mode than Mass Storageis selected, please select Mass Storage.

Connect the camera to the computer with the supplied USB cable, the LCD screen of the camera will turn off.
 Please proceed to the next step.

Click Nexton the Firmware Updater window. In the computer screen the following window will appear:

At the same time the message "Follow computer instructions" will appear on the LCD screen of the camera.
 -From this point don't turn off the camera until the firmware update is completed.
Click Next. 
The current version and the version after the update appear on the lower left part of the Firmware Updater .

Click Nexton the Firmware Updater window.
After resetting, the reconnection of the camera is verified, and the following window appears:

Click Runto start the update. The progress bar will appear while updating (approximately for 15 minutes).
 -don't turn off the camera nor disconnect the USB cable while updating.
When the update is completed, the following window will appear. 
Click Finishand disconnect the USB cable.
Note: after clicking [Finish], be sure to wait for the camera to turn on again
 although there may be cases that it takes a few minutes.

Turn off the camera, remove the battery pack and/or the AC adapter,
 reinsert the battery or reconnect the AC adapter and turn on the camera.
Confirm the firmware version of your camera is Ver 1.03.
On the camera select Menu--) Setup--) Version.
The firmware version is displayed as illustrated below.

3ο Πανσέληνος 15 Αυγούστου 2019 Aug Full moon



Πανσέληνος 15 Αυγούστου 2019  3ο  video
Full moon
Camera Olympus OM-D E-M10
 ISO 200 f5,6 Zoom Crop Sensor
Lens Panasonic Lumix H-FS1410 M4/3 14-140MM POWER O.I,S. ΟΝ

2ο Πανσέληνος 15 Αυγούστου 2019 Aug Full Monn



Πανσέληνος 15 Αυγούστου 2019  2ο  video
Full Monn
Camera Olympus OM-D E-M10
 ISO 200 f5,6 Zoom Crop Sensor
Lens Panasonic Lumix H-FS1410 M4/3 14-140MM POWER O.I,S. ΟΝ

1ο Πανσέληνος 15 Αυγούστου 2019 Full moon



Πανσέληνος 15 Αυγούστου 2019  1ο  video
Camera Olympus OM-D E-M10
 ISO 200 f5,6 Zoom Crop Sensor
Lens Panasonic Lumix H-FS1410 M4/3 14-140MM POWER O.I,S. ΟΝ

Half Moon : Olympus OM-D E-M10 + Lumix H-FS1410 FHD 30FPS



Half Moon FHD
Camera Olympus OM-D E-M10 A Mode 200iso
Lens Panasonic Lumix H-FS1410 M4/3 14-140MM  @ 140mm with Crop Sensorc lens ois ON
POWER O.I,S. OFF

Complete name : E:\DCIM\152OLYMP\P5120053.MOV
Format : MPEG-4
Format profile : QuickTime
Codec ID : qt 2011.07 (qt )
File size : 60.1 MiB
Duration : 1 min 1 s
Overall bit rate : 8 256 kb/s
Encoded date : UTC 2019-05-12 00:39:44
Tagged date : UTC 2019-05-12 00:39:44
TAGS : 8"R

Video
ID : 1
Format : AVC
Format/Info : Advanced Video Codec
Format profile : High@L4.1
Format settings : 2 Ref Frames
Format settings, CABAC : No
Format settings, Reference frames : 2 frames
Format settings, GOP : M=3, N=8
Codec ID : avc1
Codec ID/Info : Advanced Video Coding
Duration : 1 min 1 s
Bit rate : 6 599 kb/s
Width : 1 920 pixels
Height : 1 080 pixels
Display aspect ratio : 16:9
Frame rate mode : Constant
Frame rate : 29.970 (30000/1001) FPS
Color space : YUV
Chroma subsampling : 4:2:0
Bit depth : 8 bits
Scan type : Progressive
Bits/(Pixel*Frame) : 0.106
Stream size : 48.0 MiB (80%)
Language : Japanese
Encoded date : UTC 2019-05-12 00:39:44
Tagged date : UTC 2019-05-12 00:39:44
Color range : Full
Color primaries : BT.601 NTSC
Transfer characteristics : BT.601
Matrix coefficients : BT.601
Menus : 0
Codec configuration box : avcC

Audio
ID : 2
Format : PCM
Format settings : Little / Signed
Codec ID : sowt
Duration : 1 min 1 s
Source duration : 1 min 1 s
Bit rate mode : Constant
Bit rate : 1 536 kb/s
Channel(s) : 2 channels
Channel layout : L R
Sampling rate : 48.0 kHz
Bit depth : 16 bits
Stream size : 11.2 MiB (19%)
Source stream size : 11.2 MiB (19%)
Language : Japanese
Encoded date : UTC 2019-05-12 00:39:44

Clouds : Olympus OM-D E-M10 + Lumix H-FS1410 FHD 30FPS



Clouds   FHD
Camera Olympus OM-D E-M10 A Mode 200iso
Lens Panasonic Lumix H-FS1410 M4/3 14-140MM  lens ois ON
POWER O.I,S. OFF

Complete name : DCIM\152OLYMP\P5120114.MOV
Format : MPEG-4
Format profile : QuickTime
Codec ID : qt 2011.07 (qt )
File size : 82.1 MiB
Duration : 1 min 1 s
Overall bit rate : 11.3 Mb/s
Encoded date : UTC 2019-05-12 14:53:39
Tagged date : UTC 2019-05-12 14:53:39
TAGS : 8"R

Video
ID : 1
Format : AVC
Format/Info : Advanced Video Codec
Format profile : High@L4.1
Format settings : 2 Ref Frames
Format settings, CABAC : No
Format settings, Reference frames : 2 frames
Format settings, GOP : M=3, N=8
Codec ID : avc1
Codec ID/Info : Advanced Video Coding
Duration : 1 min 1 s
Bit rate : 9 616 kb/s
Width : 1 920 pixels
Height : 1 080 pixels
Display aspect ratio : 16:9
Frame rate mode : Constant
Frame rate : 29.970 (30000/1001) FPS
Color space : YUV
Chroma subsampling : 4:2:0
Bit depth : 8 bits
Scan type : Progressive
Bits/(Pixel*Frame) : 0.155
Stream size : 70.0 MiB (85%)
Language : Japanese
Encoded date : UTC 2019-05-12 14:53:39
Tagged date : UTC 2019-05-12 14:53:39
Color range : Full
Color primaries : BT.601 NTSC
Transfer characteristics : BT.601
Matrix coefficients : BT.601
Menus : 0
Codec configuration box : avcC

Audio
ID : 2
Format : PCM
Format settings : Little / Signed
Codec ID : sowt
Duration : 1 min 1 s
Source duration : 1 min 1 s
Bit rate mode : Constant
Bit rate : 1 536 kb/s
Channel(s) : 2 channels
Channel layout : L R
Sampling rate : 48.0 kHz
Bit depth : 16 bits
Stream size : 11.2 MiB (14%)
Source stream size : 11.2 MiB (14%)
Language : Japanese
Encoded date : UTC 2019-05-12 14:53:39

Sunset : Olympus OM-D E-M10 + Lumix H-FS1410 FHD




Sunset FHD
Camera Olympus OM-D E-M10 A Mode 200iso
Lens Panasonic Lumix H-FS1410 M4/3 14-140MM POWER O.I,S. OFF

Church of St. Achilles Larissa
Ιερός Ναός Αγίου Αχιλλείου Λάρισα


Complete name : DCIM\152OLYMP\P5110007.MOV
Format : MPEG-4
Format profile : QuickTime
Codec ID : qt 2011.07 (qt )
File size : 85.7 MiB
Duration : 41 s 41 ms
Overall bit rate : 17.5 Mb/s
Encoded date : UTC 2019-05-11 19:38:26
Tagged date : UTC 2019-05-11 19:38:26
TAGS : 8"R

Video
ID : 1
Format : AVC
Format/Info : Advanced Video Codec
Format profile : High@L4.1
Format settings : 2 Ref Frames
Format settings, CABAC : No
Format settings, Reference frames : 2 frames
Format settings, GOP : M=3, N=8
Codec ID : avc1
Codec ID/Info : Advanced Video Coding
Duration : 41 s 41 ms
Bit rate : 15.8 Mb/s
Width : 1 920 pixels
Height : 1 080 pixels
Display aspect ratio : 16:9
Frame rate mode : Constant
Frame rate : 29.970 (30000/1001) FPS
Color space : YUV
Chroma subsampling : 4:2:0
Bit depth : 8 bits
Scan type : Progressive
Bits/(Pixel*Frame) : 0.254
Stream size : 77.3 MiB (90%)
Language : Japanese
Encoded date : UTC 2019-05-11 19:38:26
Tagged date : UTC 2019-05-11 19:38:26
Color range : Full
Color primaries : BT.601 NTSC
Transfer characteristics : BT.601
Matrix coefficients : BT.601
Menus : 0
Codec configuration box : avcC

Audio
ID : 2
Format : PCM
Format settings : Little / Signed
Codec ID : sowt
Duration : 41 s 41 ms
Source duration : 41 s 80 ms
Bit rate mode : Constant
Bit rate : 1 536 kb/s
Channel(s) : 2 channels
Channel layout : L R
Sampling rate : 48.0 kHz
Bit depth : 16 bits
Stream size : 7.51 MiB (9%)
Source stream size : 7.52 MiB (9%)
Language : Japanese
Encoded date : UTC 2019-05-11 19:38:26

Full Moon 20 April 2019 : Panasonic Lumix DMC-GX80 4k UHD H-FS14140



Full Moon 20 April 2019
Camer : Panasonic Full Moon 20 April 2019
Camer : Panasonic Lumix DMC-GX80 UHD 4k
Lens : Panasonic Lumix H-FS14140
140mm + 4x digital zoom

Complete name : GX-80\VIDEO\P1070575.MP4
Format : MPEG-4
Format profile : Base Media / Version 2
Codec ID : mp42 (mp42/avc1)
File size : 104 MiB
Duration : 15 s 840 ms
Overall bit rate mode : Variable
Overall bit rate : 55.0 Mb/s
Encoded date : UTC 2019-04-20 01:19:21



Video
ID : 1
Format : AVC
Format/Info : Advanced Video Codec
Format profile : High@L5.1
Format settings : CABAC / 2 Ref Frames
Format settings, CABAC : Yes
Format settings, RefFrames : 2 frames
Codec ID : avc1
Codec ID/Info : Advanced Video Coding
Duration : 15 s 840 ms
Bit rate mode : Variable
Bit rate : 54.8 Mb/s
Maximum bit rate : 106 Mb/s
Width : 3 840 pixels
Height : 2 160 pixels
Display aspect ratio : 16:9
Frame rate mode : Constant
Frame rate : 25.000 FPS
Color space : YUV
Chroma subsampling : 4:2:0
Bit depth : 8 bits
Scan type : Progressive
Bits/(Pixel*Frame) : 0.264
Stream size : 103 MiB (100%)
Encoded date : UTC 2019-04-20 01:19:21
Tagged date : UTC 2019-04-20 01:19:21
Color range : Limited
Color primaries : BT.709
Transfer characteristics : BT.709
Matrix coefficients : BT.709
Codec configuration box : avcC

Audio
ID : 2
Format : AAC LC
Format/Info : Advanced Audio Codec Low Complexity
Codec ID : mp4a-40-2
Duration : 15 s 840 ms
Source duration : 15 s 893 ms
Bit rate mode : Constant
Bit rate : 128 kb/s
Channel(s) : 2 channels
Channel layout : L R
Sampling rate : 48.0 kHz
Frame rate : 46.875 FPS (1024 SPF)
Compression mode : Lossy
Stream size : 242 KiB (0%)
Source stream size : 242 KiB (0%)
Encoded date : UTC 2019-04-20 01:19:21 UHD 4k
Lens : Panasonic Lumix H-FS14140
140mm + 4x digital zoom

Complete name : GX-80\VIDEO\P1070575.MP4
Format : MPEG-4
Format profile : Base Media / Version 2
Codec ID : mp42 (mp42/avc1)
File size : 104 MiB
Duration : 15 s 840 ms
Overall bit rate mode : Variable
Overall bit rate : 55.0 Mb/s
Encoded date : UTC 2019-04-20 01:19:21



Video
ID : 1
Format : AVC
Format/Info : Advanced Video Codec
Format profile : High@L5.1
Format settings : CABAC / 2 Ref Frames
Format settings, CABAC : Yes
Format settings, RefFrames : 2 frames
Codec ID : avc1
Codec ID/Info : Advanced Video Coding
Duration : 15 s 840 ms
Bit rate mode : Variable
Bit rate : 54.8 Mb/s
Maximum bit rate : 106 Mb/s
Width : 3 840 pixels
Height : 2 160 pixels
Display aspect ratio : 16:9
Frame rate mode : Constant
Frame rate : 25.000 FPS
Color space : YUV
Chroma subsampling : 4:2:0
Bit depth : 8 bits
Scan type : Progressive
Bits/(Pixel*Frame) : 0.264
Stream size : 103 MiB (100%)
Encoded date : UTC 2019-04-20 01:19:21
Tagged date : UTC 2019-04-20 01:19:21
Color range : Limited
Color primaries : BT.709
Transfer characteristics : BT.709
Matrix coefficients : BT.709
Codec configuration box : avcC

Audio
ID : 2
Format : AAC LC
Format/Info : Advanced Audio Codec Low Complexity
Codec ID : mp4a-40-2
Duration : 15 s 840 ms
Source duration : 15 s 893 ms
Bit rate mode : Constant
Bit rate : 128 kb/s
Channel(s) : 2 channels
Channel layout : L R
Sampling rate : 48.0 kHz
Frame rate : 46.875 FPS (1024 SPF)
Compression mode : Lossy
Stream size : 242 KiB (0%)
Source stream size : 242 KiB (0%)
Encoded date : UTC 2019-04-20 01:19:21

Full Moon 21 March 2019 : OM-D E-M10



Full Moon  21 March 2019
Camera Olympus OM-D E-M10 Movie-i.s.  On MF Manual Shoting ISO 400 f8.0 Zoom Crop Sensor
Lens Panasonic Lumix H-FS1410 M4/3 14-140MM POWER O.I,S. OFF


Complete name : P3210783.MOV
Format : MPEG-4
Format profile : QuickTime
Codec ID : qt 2011.07 (qt )
File size : 41.0 MiB
Duration : 30 s 30 ms
Overall bit rate : 11.5 Mb/s
Encoded date : UTC 2019-03-21 21:29:56
TAGS : 8"R

Video
ID : 1
Format : AVC
Format/Info : Advanced Video Codec
Format profile : High@L4.1
Format settings : 2 Ref Frames
Format settings, CABAC : No
Format settings, RefFrames : 2 frames
Format settings, GOP : M=3, N=8
Codec ID : avc1
Codec ID/Info : Advanced Video Coding
Duration : 30 s 30 ms
Bit rate : 9 676 kb/s
Width : 1 920 pixels
Height : 1 080 pixels
Display aspect ratio : 16:9
Frame rate mode : Constant
Frame rate : 29.970 (30000/1001) FPS
Color space : YUV
Chroma subsampling : 4:2:0
Bit depth : 8 bits
Scan type : Progressive
Bits/(Pixel*Frame) : 0.156
Stream size : 34.6 MiB (84%)
Language : Japanese
Encoded date : UTC 2019-03-21 21:29:56
Color range : Full
Color primaries : BT.601 NTSC
Transfer characteristics : BT.601
Matrix coefficients : BT.601
Menus : 0
Codec configuration box : avcC

Audio
ID : 2
Format : PCM
Format settings : Little / Signed
Codec ID : sowt
Duration : 30 s 30 ms
Source duration : 30 s 40 ms
Bit rate mode : Constant
Bit rate : 1 536 kb/s
Channel(s) : 2 channels
Channel layout : L R
Sampling rate : 48.0 kHz
Bit depth : 16 bits
Stream size : 5.50 MiB (13%)
Source stream size : 5.50 MiB (13%)
Language : Japanese
Encoded date : UTC 2019-03-21 21:29:56

Genova città deserta Seconda parte rimaniamo a casa Μένουμε Σπίτι και εμείς

rimaniamo a casa Seconda parte Genova città deserta #StayHome Γένοβα δεύτερο μέρος Μένουμε Σπίτι και εμείς 2nd Part desert Genoa Geno...