Showing posts with label Fireworks. Show all posts
Showing posts with label Fireworks. Show all posts

4k UHD Fireworks new years eve Larissa 2020 πυροτεχνήματα Λάρισα πρωτοχρονιά Lumix DMC-GX80




Fireworks new years eve Larissa 2020 2020 πυροτεχνήματα Λάρισα πρωτοχρονιά Camera : Panasonic Lumix DMC-GX80 Lens: Canon FL 50mm f/1.4 @f/2 video test 4k UHD 3840 x 2160 25fps

360VR Fireworks new years eve Larissa 2020 πυροτεχνήματα Λάρισα πρωτοχρονιά Ricoh Theta S 1080




360VR Fireworks new years eve Larissa 2020 2020 πυροτεχνήματα Λάρισα πρωτοχρονιά 360VR Ricoh Theta S 1080 Complete name : Desktop\R0013610_20200101000039_er.MP4 Format : MPEG-4 Format profile : Base Media Codec ID : isom (isom/iso2/avc1/mp41) File size : 582 MiB Duration : 5 min 6 s Overall bit rate : 15.9 Mb/s Encoded date : UTC 2019-12-31 22:05:46 Writing application : Lavf58.12.100 xyz : +39,6342+22,4098/ Video ID : 1 Format : AVC Format/Info : Advanced Video Codec Format profile : Baseline@L4 Format settings : 2 Ref Frames Format settings, CABAC : No Format settings, RefFrames : 2 frames Format settings, GOP : M=1, N=30 Codec ID : avc1 Codec ID/Info : Advanced Video Coding Duration : 5 min 6 s Bit rate : 15.8 Mb/s Width : 1 920 pixels Height : 960 pixels Display aspect ratio : 2.000 Frame rate mode : Variable Frame rate : 29.970 (30000/1001) FPS Minimum frame rate : 29.970 FPS Maximum frame rate : 30.000 FPS Color space : YUV Chroma subsampling : 4:2:0 Bit depth : 8 bits Scan type : Progressive Bits/(Pixel*Frame) : 0.286 Stream size : 576 MiB (99%) Encoded date : UTC 2019-12-31 22:05:46 Color range : Full Codec configuration box : avcC Audio ID : 2 Format : AAC LC Format/Info : Advanced Audio Codec Low Complexity Codec ID : mp4a-40-2 Duration : 5 min 6 s Bit rate mode : Constant Bit rate : 132 kb/s Channel(s) : 1 channel Channel layout : C Sampling rate : 44.1 kHz Frame rate : 43.066 FPS (1024 SPF) Compression mode : Lossy Stream size : 4.74 MiB (1%) Default : Yes Alternate group : 1 Encoded date : UTC 2019-12-31 22:05:46

Fireworks new years eve Larissa 2020 πυροτεχνήματα Λάρισα πρωτοχρονιά Samsung NX20




Fireworks new years eve Larissa 2020 2020 πυροτεχνήματα Λάρισα πρωτοχρονιά Camera : Samsung NX20 Crop factor 1.5 Lens : Super Paragon PMC II AUTO 1:3.5 f=24mm Ø52 Canon FD @ f/4 36mm equivalent 35mm Mode : A ISO 800 EV 0,0 Video Stabilization No Video 1920x810 @ 24fps Complete name : Desktop\SAM_4423.MP4 Format : MPEG-4 Format profile : Base Media / Version 2 Codec ID : mp42 (mp42/isom/avc1) File size : 103 MiB Duration : 4 min 20 s Overall bit rate : 3 331 kb/s Video ID : 1 Format : AVC Format/Info : Advanced Video Codec Format profile : High@L4.1 Format settings : 2 Ref Frames Format settings, CABAC : No Format settings, RefFrames : 2 frames Format settings, GOP : M=1, N=24 Codec ID : avc1 Codec ID/Info : Advanced Video Coding Duration : 4 min 20 s Bit rate : 3 198 kb/s Width : 1 920 pixels Height : 810 pixels Display aspect ratio : 2.40:1 Frame rate mode : Constant Frame rate : 24.000 FPS Color space : YUV Chroma subsampling : 4:2:0 Bit depth : 8 bits Scan type : Progressive Bits/(Pixel*Frame) : 0.086 Stream size : 99.2 MiB (96%) Language : English Codec configuration box : avcC Audio ID : 2 Format : AAC LC Format/Info : Advanced Audio Codec Low Complexity Codec ID : mp4a-40-2 Duration : 4 min 20 s Bit rate mode : Constant Bit rate : 128 kb/s Channel(s) : 2 channels Channel layout : L R Sampling rate : 32.0 kHz Frame rate : 31.250 FPS (1024 SPF) Compression mode : Lossy Stream size : 3.92 MiB (4%) Language : English

Fireworks new years eve Larissa 2019




Fireworks new years eve Larissa 2019
Samsung NX1100 wirh Canon FL 50mm f/1.4

Complete name : SAMSUNG\NX1100\VIDEO\12121170.MP4
Format : MPEG-4
Format profile : Base Media / Version 2
Codec ID : mp42 (mp42/isom/avc1)
File size : 351 MiB
Duration : 5 min 53 s
Overall bit rate : 8 332 kb/s

Video
ID : 1
Format : AVC
Format/Info : Advanced Video Codec
Format profile : High@L4.1
Format settings : 2 Ref Frames
Format settings, CABAC : No
Format settings, Reference frames : 2 frames
Format settings, GOP : M=1, N=24
Codec ID : avc1
Codec ID/Info : Advanced Video Coding
Duration : 5 min 52 s
Bit rate : 8 201 kb/s
Width : 1 920 pixels
Height : 810 pixels
Display aspect ratio : 2.40:1
Frame rate mode : Constant
Frame rate : 24.000 FPS
Color space : YUV
Chroma subsampling : 4:2:0
Bit depth : 8 bits
Scan type : Progressive
Bits/(Pixel*Frame) : 0.220
Stream size : 345 MiB (98%)
Language : English
Codec configuration box : avcC

Audio
ID : 2
Format : AAC LC
Format/Info : Advanced Audio Codec Low Complexity
Codec ID : mp4a-40-2
Duration : 5 min 53 s
Bit rate mode : Constant
Bit rate : 128 kb/s
Channel(s) : 2 channels
Channel layout : L R
Sampling rate : 32.0 kHz
Frame rate : 31.250 FPS (1024 SPF)
Compression mode : Lossy
Stream size : 5.30 MiB (2%)
Language : English

Genova città deserta Seconda parte rimaniamo a casa Μένουμε Σπίτι και εμείς

rimaniamo a casa Seconda parte Genova città deserta #StayHome Γένοβα δεύτερο μέρος Μένουμε Σπίτι και εμείς 2nd Part desert Genoa Geno...