Showing posts with label Airplane. Show all posts
Showing posts with label Airplane. Show all posts

1st Airplane flies in front of the Half Moon 0:51 JVC Everio GZ-HM200BE #004 1080 25fps



1.29 pm 1st Airplane flies in front of the Half Moon
JVC Everio GZ-HM200BE
Hand 20x Zoom
video test #003 1080 25fps 24.0 Mb/s
manual focus

Complete name :AVCHD\BDMV\STREAM\00032.MTS
Format : BDAV
Format/Info : Blu-ray Video
File size : 22.1 MiB
Duration : 1 min 0 s
Overall bit rate mode : Variable
Overall bit rate : 3 050 kb/s
Maximum Overall bit rate : 24.0 Mb/s
Recorded date : 2019-05-12 01:28:01+00:00
Writing application : JVC

Video
ID : 4113 (0x1011)
Menu ID : 1 (0x1)
Format : AVC
Format/Info : Advanced Video Codec
Format profile : High@L4
Format settings : 2 Ref Frames
Format settings, CABAC : No
Format settings, RefFrames : 2 frames
Format settings, GOP : M=2, N=12
Codec ID : 27
Duration : 1 min 0 s
Bit rate mode : Variable
Bit rate : 2 662 kb/s
Maximum bit rate : 22.6 Mb/s
Width : 1 920 pixels
Height : 1 080 pixels
Display aspect ratio : 16:9
Frame rate : 25.000 FPS
Color space : YUV
Chroma subsampling : 4:2:0
Bit depth : 8 bits
Scan type : Interlaced
Scan type, store method : Separated fields
Scan order : Top Field First
Bits/(Pixel*Frame) : 0.051
Stream size : 19.3 MiB (87%)

Audio
ID : 4352 (0x1100)
Menu ID : 1 (0x1)
Format : AC-3
Format/Info : Audio Coding 3
Commercial name : Dolby Digital
Codec ID : 129
Duration : 1 min 0 s
Bit rate mode : Constant
Bit rate : 256 kb/s
Channel(s) : 2 channels
Channel layout : L R
Sampling rate : 48.0 kHz
Frame rate : 31.250 FPS (1536 SPF)
Bit depth : 16 bits
Compression mode : Lossy
Delay relative to video : -40 ms
Stream size : 1.86 MiB (8%)
Service kind : Complete Main

Text
ID : 4608 (0x1200)
Menu ID : 1 (0x1)
Format : PGS
Codec ID : 144
Duration : 1 min 0 s
Delay relative to video : -40 ms

2nd Airplane flies in front of the Half Moon 0:53 : JVC Everio GZ-HM200BE #003 1080 25fps



1.32 pm 2nd Airplane flies in front of the Half Moon

JVC Everio GZ-HM200BE
Hand 80x Zoom
video test #003 1080 25fps 24.0 Mb/s
manual focus
Brightness -6
shutter speed 1/120


Complete name :AVCHD\BDMV\STREAM\00033.MTS
Format : BDAV
Format/Info : Blu-ray Video
File size : 170 MiB
Duration : 1 min 3 s
Overall bit rate mode : Variable
Overall bit rate : 22.3 Mb/s
Maximum Overall bit rate : 24.0 Mb/s
Recorded date : 2019-05-12 01:31:18+00:00
Writing application : JVC

Video
ID : 4113 (0x1011)
Menu ID : 1 (0x1)
Format : AVC
Format/Info : Advanced Video Codec
Format profile : High@L4
Format settings : 2 Ref Frames
Format settings, CABAC : No
Format settings, RefFrames : 2 frames
Format settings, GOP : M=2, N=12
Codec ID : 27
Duration : 1 min 3 s
Bit rate mode : Variable
Bit rate : 21.1 Mb/s
Maximum bit rate : 22.6 Mb/s
Width : 1 920 pixels
Height : 1 080 pixels
Display aspect ratio : 16:9
Frame rate : 25.000 FPS
Color space : YUV
Chroma subsampling : 4:2:0
Bit depth : 8 bits
Scan type : Interlaced
Scan type, store method : Separated fields
Scan order : Top Field First
Bits/(Pixel*Frame) : 0.408
Stream size : 161 MiB (95%)

Audio
ID : 4352 (0x1100)
Menu ID : 1 (0x1)
Format : AC-3
Format/Info : Audio Coding 3
Commercial name : Dolby Digital
Codec ID : 129
Duration : 1 min 3 s
Bit rate mode : Constant
Bit rate : 256 kb/s
Channel(s) : 2 channels
Channel layout : L R
Sampling rate : 48.0 kHz
Frame rate : 31.250 FPS (1536 SPF)
Bit depth : 16 bits
Compression mode : Lossy
Delay relative to video : -40 ms
Stream size : 1.95 MiB (1%)
Service kind : Complete Main

Text
ID : 4608 (0x1200)
Menu ID : 1 (0x1)
Format : PGS
Codec ID : 144
Duration : 1 min 3 s
Delay relative to video : -40 ms

Genova città deserta Seconda parte rimaniamo a casa Μένουμε Σπίτι και εμείς

rimaniamo a casa Seconda parte Genova città deserta #StayHome Γένοβα δεύτερο μέρος Μένουμε Σπίτι και εμείς 2nd Part desert Genoa Geno...