Showing posts with label Canon Legria HF-R706. Show all posts
Showing posts with label Canon Legria HF-R706. Show all posts

Half Moon Canon Legria HF-R706 #002 1080 50fps FHD



Half Moon
Canon Legria HF-R706
Zoom Advanced 57x
Video Test #002
FHD 1080 50fps

Complete name : DCIM\115_0512\MVI_8194.MP4
Format : MPEG-4
Format profile : Base Media / Version 2
Codec ID : mp42 (mp42/avc1/CAEP)
File size : 256 MiB
Duration : 1 min 1 s
Overall bit rate : 34.6 Mb/s
Encoded date : UTC 2019-05-12 01:21:25
Tagged date : UTC 2019-05-12 01:21:25

Video
ID : 1
Format : AVC
Format/Info : Advanced Video Codec
Format profile : High@L4.2
Format settings : CABAC / 2 Ref Frames
Format settings, CABAC : Yes
Format settings, Reference frames : 2 frames
Format settings, GOP : M=3, N=24
Codec ID : avc1
Codec ID/Info : Advanced Video Coding
Duration : 1 min 1 s
Bit rate : 34.4 Mb/s
Width : 1 920 pixels
Height : 1 080 pixels
Display aspect ratio : 16:9
Frame rate mode : Constant
Frame rate : 50.000 FPS
Color space : YUV
Chroma subsampling : 4:2:0
Bit depth : 8 bits
Scan type : Progressive
Bits/(Pixel*Frame) : 0.331
Stream size : 254 MiB (99%)
Language : English
Encoded date : UTC 2019-05-12 01:21:25
Tagged date : UTC 2019-05-12 01:21:25
Color range : Limited
Color primaries : BT.709
Transfer characteristics : BT.709
Matrix coefficients : BT.709
Codec configuration box : avcC

Audio
ID : 2
Format : AAC LC
Format/Info : Advanced Audio Codec Low Complexity
Codec ID : mp4a-40-2
Duration : 1 min 1 s
Bit rate mode : Constant
Bit rate : 256 kb/s
Channel(s) : 2 channels
Channel layout : L R
Sampling rate : 48.0 kHz
Frame rate : 46.875 FPS (1024 SPF)
Compression mode : Lossy
Stream size : 1.88 MiB (1%)
Language : English
Encoded date : UTC 2019-05-12 01:21:25

Fast Motion 20x Timelapse : Canon Legria HF-R706 : Video Test #004 23.0 Mb/s 25fps



20x Fast Motion Timelapse
20 minutes as 1 minute
Canon Legria HF-R706
Video Test #004
25fps 23.0 Mb/s

Complete name : DCIM\111_0410\MVI_7992.MP4
Format : MPEG-4
Format profile : Base Media / Version 2
Codec ID : mp42 (mp42/avc1/CAEP)
File size : 172 MiB
Duration : 1 min 2 s
Overall bit rate : 23.0 Mb/s
Encoded date : UTC 2019-04-10 16:20:18

Video
ID : 1
Format : AVC
Format/Info : Advanced Video Codec
Format profile : High@L4.1
Format settings : CABAC / 2 Ref Frames
Format settings, CABAC : Yes
Format settings, RefFrames : 2 frames
Format settings, GOP : M=3, N=12
Codec ID : avc1
Codec ID/Info : Advanced Video Coding
Duration : 1 min 2 s
Bit rate : 23.0 Mb/s
Width : 1 920 pixels
Height : 1 080 pixels
Display aspect ratio : 16:9
Frame rate mode : Constant
Frame rate : 25.000 FPS
Color space : YUV
Chroma subsampling : 4:2:0
Bit depth : 8 bits
Scan type : Progressive
Bits/(Pixel*Frame) : 0.443
Stream size : 172 MiB (100%)
Language : English
Encoded date : UTC 2019-04-10 16:20:18
Color range : Limited
Color primaries : BT.709
Transfer characteristics : BT.709
Matrix coefficients : BT.709
Codec configuration box : avcC

Fast Motion 10x Timelapse : Canon Legria HF-R706 : Video Test #003 23.0 Mb/s 25fps




10x Fast Motion Timelapse
10 minutes as 1 minute
Canon Legria HF-R706
Video Test #003
25fps 23.0 Mb/s

Complete name : E:\DCIM\111_0410\MVI_7990.MP4
Format : MPEG-4
Format profile : Base Media / Version 2
Codec ID : mp42 (mp42/avc1/CAEP)
File size : 195 MiB
Duration : 1 min 11 s
Overall bit rate : 23.0 Mb/s
Encoded date : UTC 2019-04-10 15:55:27

Video
ID : 1
Format : AVC
Format/Info : Advanced Video Codec
Format profile : High@L4.1
Format settings : CABAC / 2 Ref Frames
Format settings, CABAC : Yes
Format settings, RefFrames : 2 frames
Format settings, GOP : M=3, N=12
Codec ID : avc1
Codec ID/Info : Advanced Video Coding
Duration : 1 min 11 s
Bit rate : 23.0 Mb/s
Width : 1 920 pixels
Height : 1 080 pixels
Display aspect ratio : 16:9
Frame rate mode : Constant
Frame rate : 25.000 FPS
Color space : YUV
Chroma subsampling : 4:2:0
Bit depth : 8 bits
Scan type : Progressive
Bits/(Pixel*Frame) : 0.443
Stream size : 194 MiB (100%)
Language : English
Encoded date : UTC 2019-04-10 15:55:27

Color range : Limited
Color primaries : BT.709
Transfer characteristics : BT.709
Matrix coefficients : BT.709
Codec configuration box : avcC

Fast Motion 4x Timelapse : Canon Legria HF-R706 : Video Test #002 23.0 Mb/s 25fps



4x Fast Motion Timelapse
4 minutes as 1 minute
Canon Legria HF-R706
Video Test #002
25fps 23.0 Mb/s

Complete name : DCIM\111_0410\MVI_7991.MP4
Format : MPEG-4
Format profile : Base Media / Version 2
Codec ID : mp42 (mp42/avc1/CAEP)
File size : 454 MiB
Duration : 2 min 45 s
Overall bit rate : 23.0 Mb/s
Encoded date : UTC 2019-04-10 16:08:59

Video
ID : 1
Format : AVC
Format/Info : Advanced Video Codec
Format profile : High@L4.1
Format settings : CABAC / 2 Ref Frames
Format settings, CABAC : Yes
Format settings, RefFrames : 2 frames
Format settings, GOP : M=3, N=12
Codec ID : avc1
Codec ID/Info : Advanced Video Coding
Duration : 2 min 45 s
Bit rate : 23.0 Mb/s
Width : 1 920 pixels
Height : 1 080 pixels
Display aspect ratio : 16:9
Frame rate mode : Constant
Frame rate : 25.000 FPS
Color space : YUV
Chroma subsampling : 4:2:0
Bit depth : 8 bits
Scan type : Progressive
Bits/(Pixel*Frame) : 0.443
Stream size : 453 MiB (100%)
Language : English
Encoded date : UTC 2019-04-10 16:08:59

Color range : Limited
Color primaries : BT.709
Transfer characteristics : BT.709
Matrix coefficients : BT.709
Codec configuration box : avcC

Canon Legria HF-R706 test 8k Upscaled Video FUHD




8k test
Canon Legria HF-R706 8k test upscaled video FUHD


Complete name : Canon\8k.mp4
Format : MPEG-4
Format profile : Base Media
Codec ID : isom (isom/iso2/avc1/mp41)
File size : 409 MiB
Duration : 46 s 571 ms
Overall bit rate : 73.7 Mb/s
Writing application : Lavf57.83.100

Video
ID : 1
Format : AVC
Format/Info : Advanced Video Codec
Format profile : High@L5.2
Format settings : CABAC / 3 Ref Frames
Format settings, CABAC : Yes
Format settings, RefFrames : 3 frames
Format settings, GOP : N=1
Codec ID : avc1
Codec ID/Info : Advanced Video Coding
Duration : 46 s 560 ms
Bit rate : 73.5 Mb/s
Nominal bit rate : 5 000 kb/s
Width : 7 680 pixels
Height : 4 320 pixels
Display aspect ratio : 16:9
Frame rate mode : Constant
Frame rate : 25.000 FPS
Color space : YUV
Chroma subsampling : 4:2:0
Bit depth : 8 bits
Scan type : Progressive
Bits/(Pixel*Frame) : 0.089
Stream size : 408 MiB (100%)
Writing library : x264 core 148 r2721M 72d53ab
Encoding settings : cabac=1 / ref=3 / deblock=1:0:0 / analyse=0x3:0x113 / me=hex / subme=7 / psy=1 / psy_rd=1.00:0.00 / mixed_ref=1 / me_range=16 / chroma_me=1 / trellis=1 / 8x8dct=1 / cqm=0 / deadzone=21,11 / fast_pskip=1 / chroma_qp_offset=-2 / threads=4 / lookahead_threads=1 / sliced_threads=0 / nr=0 / decimate=1 / interlaced=0 / bluray_compat=0 / constrained_intra=0 / bframes=0 / weightp=2 / keyint=12 / keyint_min=1 / scenecut=40 / intra_refresh=0 / rc_lookahead=12 / rc=abr / mbtree=1 / bitrate=5000 / ratetol=1.0 / qcomp=0.60 / qpmin=2 / qpmax=30 / qpstep=4 / ip_ratio=1.40 / aq=1:1.00
Codec configuration box : avcC

Audio
ID : 2
Format : AAC LC
Format/Info : Advanced Audio Codec Low Complexity
Codec ID : mp4a-40-2
Duration : 46 s 571 ms
Bit rate mode : Constant
Bit rate : 129 kb/s
Channel(s) : 2 channels
Channel layout : L R
Sampling rate : 48.0 kHz
Frame rate : 46.875 FPS (1024 SPF)
Compression mode : Lossy
Stream size : 731 KiB (0%)
Default : Yes
Alternate group : 1

Flowers : Canon Legria HF-R706 : Video Test #001 1080p 50fps 34Mb/s




Flowers : Canon Legria HF-R706
Video Test #001 1080p 50fps 34Mb/s
Teleconverter ON

Complete name : Canon\105_0402\MVI_0025.MP4
Format : MPEG-4
Format profile : Base Media / Version 2
Codec ID : mp42 (mp42/avc1/CAEP)
File size : 193 MiB
Duration : 46 s 560 ms
Overall bit rate : 34.7 Mb/s
Encoded date : UTC 2019-04-02 17:26:55


Video
ID : 1
Format : AVC
Format/Info : Advanced Video Codec
Format profile : High@L4.2
Format settings : CABAC / 2 Ref Frames
Format settings, CABAC : Yes
Format settings, RefFrames : 2 frames
Format settings, GOP : M=3, N=24
Codec ID : avc1
Codec ID/Info : Advanced Video Coding
Duration : 46 s 560 ms
Bit rate : 34.4 Mb/s
Width : 1 920 pixels
Height : 1 080 pixels
Display aspect ratio : 16:9
Frame rate mode : Constant
Frame rate : 50.000 FPS
Color space : YUV
Chroma subsampling : 4:2:0
Bit depth : 8 bits
Scan type : Progressive
Bits/(Pixel*Frame) : 0.332
Stream size : 191 MiB (99%)
Language : English
Encoded date : UTC 2019-04-02 17:26:55
Tagged date : UTC 2019-04-02 17:26:55
Color range : Limited
Color primaries : BT.709
Transfer characteristics : BT.709
Matrix coefficients : BT.709
Codec configuration box : avcC

Audio
ID : 2
Format : AAC LC
Format/Info : Advanced Audio Codec Low Complexity
Codec ID : mp4a-40-2
Duration : 46 s 549 ms
Bit rate mode : Constant
Bit rate : 256 kb/s
Channel(s) : 2 channels
Channel layout : L R
Sampling rate : 48.0 kHz
Frame rate : 46.875 FPS (1024 SPF)
Compression mode : Lossy
Stream size : 1.41 MiB (1%)
Language : English
Encoded date : UTC 2019-04-02 17:26:55

Popular Posts