Showing posts with label Turbo-x s2. Show all posts
Showing posts with label Turbo-x s2. Show all posts

Turbo-x s2 timelapse 1080p 30p #002 with Framelapse apk 17 Mb/s




Test 2 Turbo-x s2 timelapse 1080 30p with Framelapse apk 17 Mb/s
camera 13mp Turbo-x ς2

Complete name :  Framelapse \VID_20190222_175856.mp4
Format : MPEG-4
Format profile : 3GPP Media Release 4
Codec ID : 3gp4 (isom/3gp4)
File size : 61.0 MiB
Duration : 30 s 66 ms
Overall bit rate : 17.0 Mb/s
Encoded date : UTC 2019-02-22 16:06:30
com.android.version : 6.0

Video
ID : 1
Format : AVC
Format/Info : Advanced Video Codec
Format profile : Baseline@L4.1
Format settings : 1 Ref Frames
Format settings, CABAC : No
Format settings, RefFrames : 1 frame
Format settings, GOP : M=1, N=30
Codec ID : avc1
Codec ID/Info : Advanced Video Coding
Duration : 30 s 66 ms
Bit rate : 17.0 Mb/s
Width : 1 920 pixels
Height : 1 088 pixels
Display aspect ratio : 16:9
Frame rate mode : Variable
Frame rate : 30.000 FPS
Minimum frame rate : 29.910 FPS
Maximum frame rate : 30.010 FPS
Color space : YUV
Chroma subsampling : 4:2:0
Bit depth : 8 bits
Scan type : Progressive
Bits/(Pixel*Frame) : 0.272
Stream size : 61.0 MiB (100%)
Title : VideoHandle
Language : English
Encoded date : UTC 2019-02-22 16:06:30
mdhd_Duration : 30066
Codec configuration box : avcC

Turbo-x s2 timelapse 1080p 30p #001 with Framelapse apk 17 Mb/s



Test 1 Turbo-x s2 timelapse 1080 30p with Framelapse apk 17 Mb/s
camera 13mp
Turbo-x ς2

Complete name :  Framelapse VID_20190222_174824.mp4
Format : MPEG-4
Format profile : 3GPP Media Release 4
Codec ID : 3gp4 (isom/3gp4)
File size : 61.0 MiB
Duration : 30 s 66 ms
Overall bit rate : 17.0 Mb/s
Encoded date : UTC 2019-02-22 15:55:58
com.android.version : 6.0

Video
ID : 1
Format : AVC
Format/Info : Advanced Video Codec
Format profile : Baseline@L4.1
Format settings : 1 Ref Frames
Format settings, CABAC : No
Format settings, RefFrames : 1 frame
Format settings, GOP : M=1, N=30
Codec ID : avc1
Codec ID/Info : Advanced Video Coding
Duration : 30 s 66 ms
Bit rate : 17.0 Mb/s
Width : 1 920 pixels
Height : 1 088 pixels
Display aspect ratio : 16:9
Frame rate mode : Variable
Frame rate : 30.000 FPS
Minimum frame rate : 29.910 FPS
Maximum frame rate : 30.010 FPS
Color space : YUV
Chroma subsampling : 4:2:0
Bit depth : 8 bits
Scan type : Progressive
Bits/(Pixel*Frame) : 0.272
Stream size : 61.0 MiB (100%)
Title : VideoHandle
Language : English
Encoded date : UTC 2019-02-22 15:55:58
mdhd_Duration : 30066
Codec configuration box : avcC


Genova città deserta Seconda parte rimaniamo a casa Μένουμε Σπίτι και εμείς

rimaniamo a casa Seconda parte Genova città deserta #StayHome Γένοβα δεύτερο μέρος Μένουμε Σπίτι και εμείς 2nd Part desert Genoa Geno...