Showing posts with label smc PENTAX-M 1:2 50mm. Show all posts
Showing posts with label smc PENTAX-M 1:2 50mm. Show all posts

Old railings with design : Xiaomi Yi M1 with smc PENTAX-M 50mm f/2 Ø49 PK adapted to M4/3 4k




Old railings with design in a Cloudy Day Larissa Greece
Camera : Xiaomi Yi M1 mirrorless Sony IMX269
Lens : smc PENTAX-M f/2 50mm  Ø49 M42 @ f/2 @ f/2
Mode : A ISO 200 EV 0,0
Video Stabilization OFF Video 3840x2160 @ 30fps
PK adapted MFT
Yi M1 PK adapted video test
PK adapted M4/3

Complete name : XIAOMI\YI M1\VIDEO\PB110465.MP4
Format : MPEG-4
Format profile : Base Media / Version 2
Codec ID : mp42 (mp42/avc1)
File size : 690 MiB
Duration : 1 min 16 s
Overall bit rate mode : Variable
Overall bit rate : 76.1 Mb/s
Encoded date : UTC 2019-11-11 16:01:43
Tagged date : UTC 2019-11-11 16:01:43

Video
ID : 1
Format : AVC
Format/Info : Advanced Video Codec
Format profile : High@L5.1
Format settings : 1 Ref Frames
Format settings, CABAC : No
Format settings, Reference frames : 1 frame
Format settings, GOP : M=1, N=15
Codec ID : avc1
Codec ID/Info : Advanced Video Coding
Duration : 1 min 16 s
Bit rate : 75.9 Mb/s
Width : 3 840 pixels
Height : 2 160 pixels
Display aspect ratio : 16:9
Frame rate mode : Constant
Frame rate : 29.970 (30000/1001) FPS
Color space : YUV
Chroma subsampling : 4:2:0
Bit depth : 8 bits
Scan type : Progressive
Bits/(Pixel*Frame) : 0.305
Stream size : 689 MiB (100%)
Language : English
Encoded date : UTC 2019-11-11 16:01:43
Tagged date : UTC 2019-11-11 16:01:43
Color range : Full
Color primaries : BT.601 NTSC
Transfer characteristics : BT.709
Matrix coefficients : BT.601
Menus : 3
Codec configuration box : avcC

Audio
ID : 2
Format : AAC LC
Format/Info : Advanced Audio Codec Low Complexity
Codec ID : mp4a-40-2
Duration : 1 min 16 s
Source duration : 1 min 16 s
Bit rate mode : Variable
Bit rate : 128 kb/s
Maximum bit rate : 192 kb/s
Channel(s) : 2 channels
Channel layout : L R
Sampling rate : 48.0 kHz
Frame rate : 46.875 FPS (1024 SPF)
Compression mode : Lossy
Stream size : 1.15 MiB (0%)
Source stream size : 1.16 MiB (0%)
Language : English
Encoded date : UTC 2019-11-11 16:01:43

Daisies : Xiaomi Yi M1 with smc PENTAX-M f/2 50mm Ø49 PK adapted to M4/3 4k




Daisies Cloudy Day Larissa Greece
Camera : Xiaomi Yi M1 mirrorless Sony IMX269
Lens : smc PENTAX-M f/2 50mm  Ø49 M42 @ f/2 @ f/2
Mode : A ISO 200 EV 0,0
Video Stabilization OFF Video 3840x2160 @ 30fps
PK adapted MFT
Yi M1 PK adapted video test
PK adapted M4/3

Complete name : XIAOMI\YI M1\VIDEO\PB110464.MP4
Format : MPEG-4
Format profile : Base Media / Version 2
Codec ID : mp42 (mp42/avc1)
File size : 690 MiB
Duration : 1 min 16 s
Overall bit rate mode : Variable
Overall bit rate : 76.1 Mb/s
Encoded date : UTC 2019-11-11 15:59:30
Tagged date : UTC 2019-11-11 15:59:30

Video
ID : 1
Format : AVC
Format/Info : Advanced Video Codec
Format profile : High@L5.1
Format settings : 1 Ref Frames
Format settings, CABAC : No
Format settings, Reference frames : 1 frame
Format settings, GOP : M=1, N=15
Codec ID : avc1
Codec ID/Info : Advanced Video Coding
Duration : 1 min 16 s
Bit rate : 76.0 Mb/s
Width : 3 840 pixels
Height : 2 160 pixels
Display aspect ratio : 16:9
Frame rate mode : Constant
Frame rate : 29.970 (30000/1001) FPS
Color space : YUV
Chroma subsampling : 4:2:0
Bit depth : 8 bits
Scan type : Progressive
Bits/(Pixel*Frame) : 0.306
Stream size : 689 MiB (100%)
Language : English
Encoded date : UTC 2019-11-11 15:59:30
Tagged date : UTC 2019-11-11 15:59:30
Color range : Full
Color primaries : BT.601 NTSC
Transfer characteristics : BT.709
Matrix coefficients : BT.601
Menus : 3
Codec configuration box : avcC

Audio
ID : 2
Format : AAC LC
Format/Info : Advanced Audio Codec Low Complexity
Codec ID : mp4a-40-2
Duration : 1 min 16 s
Source duration : 1 min 16 s
Bit rate mode : Variable
Bit rate : 128 kb/s
Maximum bit rate : 192 kb/s
Channel(s) : 2 channels
Channel layout : L R
Sampling rate : 48.0 kHz
Frame rate : 46.875 FPS (1024 SPF)
Compression mode : Lossy
Stream size : 1.15 MiB (0%)
Source stream size : 1.16 MiB (0%)
Language : English
Encoded date : UTC 2019-11-11 15:59:30

Pink Rose : Xiaomi Yi M1 with smc PENTAX-M 1:2 50mm Ø49 PK adapted to M4/3 4k





Pink Rose Cloudy Sky Larissa Greece
Camera : Xiaomi Yi M1 mirrorless Sony IMX269
Lens : smc PENTAX-M f/2 50mm  Ø49 M42 @ f/2 @ f/2
Mode : A ISO 200 EV 0,0
Video Stabilization OFF Video 3840x2160 @ 30fps
PK adapted MFT
Yi M1 PK adapted video test
PK adapted M4/3

Complete name : E:\PHOTO\XIAOMI\YI M1\PB110456.MP4
Format : MPEG-4
Format profile : Base Media / Version 2
Codec ID : mp42 (mp42/avc1)
File size : 717 MiB
Duration : 1 min 19 s
Overall bit rate mode : Variable
Overall bit rate : 76.0 Mb/s
Encoded date : UTC 2019-11-11 15:54:05
Tagged date : UTC 2019-11-11 15:54:05

Video
ID : 1
Format : AVC
Format/Info : Advanced Video Codec
Format profile : High@L5.1
Format settings : 1 Ref Frames
Format settings, CABAC : No
Format settings, Reference frames : 1 frame
Format settings, GOP : M=1, N=15
Codec ID : avc1
Codec ID/Info : Advanced Video Coding
Duration : 1 min 19 s
Bit rate : 75.9 Mb/s
Width : 3 840 pixels
Height : 2 160 pixels
Display aspect ratio : 16:9
Frame rate mode : Constant
Frame rate : 29.970 (30000/1001) FPS
Color space : YUV
Chroma subsampling : 4:2:0
Bit depth : 8 bits
Scan type : Progressive
Bits/(Pixel*Frame) : 0.305
Stream size : 716 MiB (100%)
Language : English
Encoded date : UTC 2019-11-11 15:54:05
Tagged date : UTC 2019-11-11 15:54:05
Color range : Full
Color primaries : BT.601 NTSC
Transfer characteristics : BT.709
Matrix coefficients : BT.601
Menus : 3
Codec configuration box : avcC

Audio
ID : 2
Format : AAC LC
Format/Info : Advanced Audio Codec Low Complexity
Codec ID : mp4a-40-2
Duration : 1 min 19 s
Source duration : 1 min 19 s
Bit rate mode : Variable
Bit rate : 128 kb/s
Maximum bit rate : 192 kb/s
Channel(s) : 2 channels
Channel layout : L R
Sampling rate : 48.0 kHz
Frame rate : 46.875 FPS (1024 SPF)
Compression mode : Lossy
Stream size : 1.20 MiB (0%)
Source stream size : 1.20 MiB (0%)
Language : English
Encoded date : UTC 2019-11-11 15:54:05

Genova città deserta Seconda parte rimaniamo a casa Μένουμε Σπίτι και εμείς

rimaniamo a casa Seconda parte Genova città deserta #StayHome Γένοβα δεύτερο μέρος Μένουμε Σπίτι και εμείς 2nd Part desert Genoa Geno...