Showing posts with label SUPER PARAGON PMC II AUTO f/3.5 24mm. Show all posts
Showing posts with label SUPER PARAGON PMC II AUTO f/3.5 24mm. Show all posts

Fireworks new years eve Larissa 2020 πυροτεχνήματα Λάρισα πρωτοχρονιά Samsung NX20




Fireworks new years eve Larissa 2020 2020 πυροτεχνήματα Λάρισα πρωτοχρονιά Camera : Samsung NX20 Crop factor 1.5 Lens : Super Paragon PMC II AUTO 1:3.5 f=24mm Ø52 Canon FD @ f/4 36mm equivalent 35mm Mode : A ISO 800 EV 0,0 Video Stabilization No Video 1920x810 @ 24fps Complete name : Desktop\SAM_4423.MP4 Format : MPEG-4 Format profile : Base Media / Version 2 Codec ID : mp42 (mp42/isom/avc1) File size : 103 MiB Duration : 4 min 20 s Overall bit rate : 3 331 kb/s Video ID : 1 Format : AVC Format/Info : Advanced Video Codec Format profile : High@L4.1 Format settings : 2 Ref Frames Format settings, CABAC : No Format settings, RefFrames : 2 frames Format settings, GOP : M=1, N=24 Codec ID : avc1 Codec ID/Info : Advanced Video Coding Duration : 4 min 20 s Bit rate : 3 198 kb/s Width : 1 920 pixels Height : 810 pixels Display aspect ratio : 2.40:1 Frame rate mode : Constant Frame rate : 24.000 FPS Color space : YUV Chroma subsampling : 4:2:0 Bit depth : 8 bits Scan type : Progressive Bits/(Pixel*Frame) : 0.086 Stream size : 99.2 MiB (96%) Language : English Codec configuration box : avcC Audio ID : 2 Format : AAC LC Format/Info : Advanced Audio Codec Low Complexity Codec ID : mp4a-40-2 Duration : 4 min 20 s Bit rate mode : Constant Bit rate : 128 kb/s Channel(s) : 2 channels Channel layout : L R Sampling rate : 32.0 kHz Frame rate : 31.250 FPS (1024 SPF) Compression mode : Lossy Stream size : 3.92 MiB (4%) Language : English

Samsung NX1100 with Super Paragon PMC II AUTO 1:3.5 f=24mm Ø52




Pink Rose
Video: with Samsung NX-1100 20.3mp HD 1920 x 834 24fps (1.30)
Mode A ISO 100
Lens: Super Paragon PMC II AUTO 1:3.5 f=24mm @5.6 Canon FD
APERTURE (F) f/3.5
FOCAL LENGTH (MM) f=24mm  (FORMAT 35 mm full frame)
FOCAL LENGTH (MM) f=36mm  (FOCAL LENGTH APS-C)
FILTER DIAMETER (MM)  52mm
MINIMUM FOCUS DISTANCE 0.17m to Infinity.
Samsung NX-1100 NX adapted to CANON FD Mount adapted to NX Samsung

Complete name : I:\DCIM\221PHOTO\06081224.MP4
Format : MPEG-4
Format profile : Base Media / Version 2
Codec ID : mp42 (mp42/isom/avc1)
File size : 82.6 MiB
Duration : 1 min 3 s
Overall bit rate : 10.8 Mb/s

Video
ID : 1
Format : AVC
Format/Info : Advanced Video Codec
Format profile : High@L4.1
Format settings : 2 Ref Frames
Format settings, CABAC : No
Format settings, Reference frames : 2 frames
Format settings, GOP : M=1, N=24
Codec ID : avc1
Codec ID/Info : Advanced Video Coding
Duration : 1 min 3 s
Bit rate : 10.7 Mb/s
Width : 1 920 pixels
Height : 810 pixels
Display aspect ratio : 2.40:1
Frame rate mode : Constant
Frame rate : 24.000 FPS
Color space : YUV
Chroma subsampling : 4:2:0
Bit depth : 8 bits
Scan type : Progressive
Bits/(Pixel*Frame) : 0.288
Stream size : 81.6 MiB (99%)
Language : English
Codec configuration box : avcC

Audio
ID : 2
Format : AAC LC
Format/Info : Advanced Audio Codec Low Complexity
Codec ID : mp4a-40-2
Duration : 1 min 3 s
Bit rate mode : Constant
Bit rate : 128 kb/s
Channel(s) : 2 channels
Channel layout : L R
Sampling rate : 32.0 kHz
Frame rate : 31.250 FPS (1024 SPF)
Compression mode : Lossy
Stream size : 990 KiB (1%)
Language : English

JVC GC-FM1BE HD memory camera Disassembled

Disassembled JVC GC-FM1 High definition 1440 x1080 camera.
Inside boards and connections.

1/3.2-inch 8 Megapixel CMOS
4x Digital Zoom
Memory Card Slot for SDHC/SD
Software provided (for Windows (R))
1080P HD Video Recording
8 Megapixel Still Image Shooting

Video: with Samsung NX-1100 20.3mp HD 1920 x 834 24fps (1.30)
Shutter 1/30 ISO 400
Lens: Super Paragon PMC II AUTO
APERTURE (F) f/3.5
FOCAL LENGTH (MM) f=24mm  (FORMAT 35 mm full frame)
FOCAL LENGTH (MM) f=36mm  (FOCAL LENGTH APS-C)
FILTER DIAMETER (MM)  52mm
MINIMUM FOCUS DISTANCE 0.17m to Infinity.
CANON FD Mount adapted to NX Samsung

Genova città deserta Seconda parte rimaniamo a casa Μένουμε Σπίτι και εμείς

rimaniamo a casa Seconda parte Genova città deserta #StayHome Γένοβα δεύτερο μέρος Μένουμε Σπίτι και εμείς 2nd Part desert Genoa Geno...