Showing posts with label KONICA. Show all posts
Showing posts with label KONICA. Show all posts

part3. focusing Magnolia tree Cyprus street Larissa 17/03/2020 NEX-5N HEXANON AR 50mm F1.8



Μανόλια, οδός Κύπρου Λάρισα 
Creative Style  Crtv-S Sunset ! (UNEDITED VIDEO FILE)
Flowered magnolia pink 
Filming Location: Larissa , Greece.
Camera : Sony NEX 5N 16.1 Mp 
Crop factor 1.5
Lens : KONICA HEXANON AR 50mm F1,8 @1.8
Mode : A  ISO 100 EV 0,0  (1/1000-40000) creative style Sunset  0 0 0
Video Stabilization OFF Video 1920x1080 @ 50fps
AR adapted to NEX 

Don’t forget to Subscribe and  click the bell to turn on post notifications!

Nikolaos Instagram: https://www.instagram.com/sakellarisn...
Twitter: https://twitter.com/SakellarisNiko
Facebook: https://www.facebook.com/nikolaos.sak...
Blog: https://video-photo-blog.blogspot.com/

Complete name : PHOTO\SIONY\NEX-5N\stream\00017.MTS 
Format : BDAV 
Format/Info : Blu-ray Video 
File size : 311 MiB 
Duration : 1 min 38 s 
Overall bit rate mode : Variable 
Overall bit rate : 26.5 Mb/s 
Maximum Overall bit rate : 28.0 Mb/s 
Recorded date : 2020-03-17 18:00:42+02:00 
Writing application : Sony NEX-5N 

Video 
ID : 4113 (0x1011) 
Menu ID : 1 (0x1) 
Format : AVC 
Format/Info : Advanced Video Codec 
Format profile : High@L4.2 
Format settings : CABAC / 2 Ref Frames 
Format settings, CABAC : Yes 
Format settings, Reference frames : 2 frames 
Format settings, GOP : M=1, N=12 
Codec ID : 27 
Duration : 1 min 38 s 
Bit rate mode : Variable 
Bit rate : 25.2 Mb/s 
Maximum bit rate : 26.0 Mb/s 
Width : 1 920 pixels 
Height : 1 080 pixels 
Display aspect ratio : 16:9 
Frame rate : 50.000 FPS 
Color space : YUV 
Chroma subsampling : 4:2:0 
Bit depth : 8 bits 
Scan type : Progressive 
Bits/(Pixel*Frame) : 0.243 
Stream size : 295 MiB (95%) 
IrisFNumber : 0.000000 

Audio 
ID : 4352 (0x1100) 
Menu ID : 1 (0x1) 
Format : AC-3 
Format/Info : Audio Coding 3 
Commercial name : Dolby Digital 
Codec ID : 129 
Duration : 1 min 38 s 
Bit rate mode : Constant 
Bit rate : 256 kb/s 
Channel(s) : 2 channels 
Channel layout : L R 
Sampling rate : 48.0 kHz 
Frame rate : 31.250 FPS (1536 SPF) 
Compression mode : Lossy 
Stream size : 3.00 MiB (1%) 
Service kind : Complete Main 

Text 
ID : 4608 (0x1200) 
Menu ID : 1 (0x1) 
Format : PGS 
Codec ID : 144 
Duration : 1 min 37 s


part2. Flowered pink magnolia central square of Larissa 17/03/2020 NEX-5N HEXANON AR 50mm F1.8




Ανθισμένη ροζ μανόλια, κεντρική πλατεία Λάρισα 
Creative Style  Crtv-S Sunset ! (UNEDITED VIDEO FILE)
Flowered magnolia pink 
Filming Location: Larissa , Greece.
Camera : Sony NEX 5N 16.1 Mp 
Crop factor 1.5
Lens : KONICA HEXANON AR 50mm F1,8 @1.8
Mode : A  ISO 100 EV 0,0  (1/1000-40000) creative style Sunset  0 0 0
Video Stabilization OFF Video 1920x1080 @ 50fps
AR adapted to NEX 

Don’t forget to Subscribe and  click the bell to turn on post notifications!

Nikolaos Instagram: https://www.instagram.com/sakellarisn...
Twitter: https://twitter.com/SakellarisNiko
Facebook: https://www.facebook.com/nikolaos.sak...
Blog: https://video-photo-blog.blogspot.com/

Complete name :PHOTO\SIONY\NEX-5N\stream\00016.MTS 
Format : BDAV 
Format/Info : Blu-ray Video 
File size : 300 MiB 
Duration : 1 min 35 s 
Overall bit rate mode : Variable 
Overall bit rate : 26.5 Mb/s 
Maximum Overall bit rate : 28.0 Mb/s 
Recorded date : 2020-03-17 17:58:13+02:00 
Writing application : Sony NEX-5N 

Video 
ID : 4113 (0x1011) 
Menu ID : 1 (0x1) 
Format : AVC 
Format/Info : Advanced Video Codec 
Format profile : High@L4.2 
Format settings : CABAC / 2 Ref Frames 
Format settings, CABAC : Yes 
Format settings, Reference frames : 2 frames 
Format settings, GOP : M=1, N=12 
Codec ID : 27 
Duration : 1 min 35 s 
Bit rate mode : Variable 
Bit rate : 25.2 Mb/s 
Maximum bit rate : 26.0 Mb/s 
Width : 1 920 pixels 
Height : 1 080 pixels 
Display aspect ratio : 16:9 
Frame rate : 50.000 FPS 
Color space : YUV 
Chroma subsampling : 4:2:0 
Bit depth : 8 bits 
Scan type : Progressive 
Bits/(Pixel*Frame) : 0.243 
Stream size : 286 MiB (95%) 
IrisFNumber : 0.000000 

Audio 
ID : 4352 (0x1100) 
Menu ID : 1 (0x1) 
Format : AC-3 
Format/Info : Audio Coding 3 
Commercial name : Dolby Digital 
Codec ID : 129 
Duration : 1 min 35 s 
Bit rate mode : Constant 
Bit rate : 256 kb/s 
Channel(s) : 2 channels 
Channel layout : L R 
Sampling rate : 48.0 kHz 
Frame rate : 31.250 FPS (1536 SPF) 
Compression mode : Lossy 
Stream size : 2.90 MiB (1%) 
Service kind : Complete Main 

Text 
ID : 4608 (0x1200) 
Menu ID : 1 (0x1) 
Format : PGS 
Codec ID : 144 
Duration : 1 min 34 s


part1. Flowered pink magnolia central square of Larissa17/03/2020 NEX-5N HEXANON AR 50mm F1.8



Ανθισμένη ροζ μανόλια, κεντρική πλατεία Λάρισα 
Creative Style  Crtv-S Sunset ! (UNEDITED VIDEO FILE)
Flowered magnolia pink 
Filming Location: Larissa , Greece.
Camera : Sony NEX 5N 16.1 Mp 
Crop factor 1.5
Lens : KONICA HEXANON AR 50mm F1,8 @1.8
Mode : A  ISO 100 EV 0,0  (1/1000-40000) creative style Sunset  0 0 0
Video Stabilization OFF Video 1920x1080 @ 50fps
AR adapted to NEX 

Don’t forget to Subscribe and  click the bell to turn on post notifications!

Nikolaos Instagram: https://www.instagram.com/sakellarisn...
Twitter: https://twitter.com/SakellarisNiko
Facebook: https://www.facebook.com/nikolaos.sak...
Blog: https://video-photo-blog.blogspot.com/

Complete name : PHOTO\SIONY\NEX-5N\stream\00015.MTS 
Format : BDAV 
Format/Info : Blu-ray Video 
File size : 291 MiB 
Duration : 1 min 32 s 
Overall bit rate mode : Variable 
Overall bit rate : 26.5 Mb/s 
Maximum Overall bit rate : 28.0 Mb/s 
Recorded date : 2020-03-17 17:54:37+02:00 
Writing application : Sony NEX-5N 

Video 
ID : 4113 (0x1011) 
Menu ID : 1 (0x1) 
Format : AVC 
Format/Info : Advanced Video Codec 
Format profile : High@L4.2 
Format settings : CABAC / 2 Ref Frames 
Format settings, CABAC : Yes 
Format settings, Reference frames : 2 frames 
Format settings, GOP : M=1, N=12 
Codec ID : 27 
Duration : 1 min 32 s 
Bit rate mode : Variable 
Bit rate : 25.2 Mb/s 
Maximum bit rate : 26.0 Mb/s 
Width : 1 920 pixels 
Height : 1 080 pixels 
Display aspect ratio : 16:9 
Frame rate : 50.000 FPS 
Color space : YUV 
Chroma subsampling : 4:2:0 
Bit depth : 8 bits 
Scan type : Progressive 
Bits/(Pixel*Frame) : 0.243 
Stream size : 277 MiB (95%) 
IrisFNumber : 0.000000 

Audio 
ID : 4352 (0x1100) 
Menu ID : 1 (0x1) 
Format : AC-3 
Format/Info : Audio Coding 3 
Commercial name : Dolby Digital 
Codec ID : 129 
Duration : 1 min 32 s 
Bit rate mode : Constant 
Bit rate : 256 kb/s 
Channel(s) : 2 channels 
Channel layout : L R 
Sampling rate : 48.0 kHz 
Frame rate : 31.250 FPS (1536 SPF) 
Compression mode : Lossy 
Stream size : 2.81 MiB (1%) 
Service kind : Complete Main 

Text 
ID : 4608 (0x1200) 
Menu ID : 1 (0x1) 
Format : PGS 
Codec ID : 144 
Duration : 1 min 31 s


After sunset Sony NEX-5N with KONICA HEXANON AR 50mm F1.8 AR to NEX Creative Style Sunset



Creative Style  Crtv-S Sunset 
Filming Location: Larissa , Greece.
Camera : Sony NEX 5N 16.1 Mp 
Crop factor 1.5
Lens : KONICA HEXANON AR 50mm F1,8 @1.8
Mode : M  ISO 100 EV 0,0  (1/50) creative style Sunset  0 0 0
Video Stabilization OFF Video 1920x1080 @ 50fps
AR adapted to NEX 

Don’t forget to Subscribe and  click the bell to turn on post notifications!

Nikolaos Instagram: https://www.instagram.com/sakellarisnikolaos/
Twitter: https://twitter.com/SakellarisNiko
Facebook: https://www.facebook.com/nikolaos.sakellaris/
Blog: https://video-photo-blog.blogspot.com/

Complete name : AVCHD\BDMV\STREAM\00013.MTS 
Format : BDAV 
Format/Info : Blu-ray Video 
File size : 290 MiB 
Duration : 1 min 31 s 
Overall bit rate mode : Variable 
Overall bit rate : 26.5 Mb/s 
Maximum Overall bit rate : 28.0 Mb/s 
Recorded date : 2020-03-16 19:39:19+02:00 
Writing application : Sony NEX-5N 

Video 
ID : 4113 (0x1011) 
Menu ID : 1 (0x1) 
Format : AVC 
Format/Info : Advanced Video Codec 
Format profile : High@L4.2 
Format settings : CABAC / 2 Ref Frames 
Format settings, CABAC : Yes 
Format settings, Reference frames : 2 frames 
Format settings, GOP : M=1, N=12 
Codec ID : 27 
Duration : 1 min 31 s 
Bit rate mode : Variable 
Bit rate : 25.2 Mb/s 
Maximum bit rate : 26.0 Mb/s 
Width : 1 920 pixels 
Height : 1 080 pixels 
Display aspect ratio : 16:9 
Frame rate : 50.000 FPS 
Color space : YUV 
Chroma subsampling : 4:2:0 
Bit depth : 8 bits 
Scan type : Progressive 
Bits/(Pixel*Frame) : 0.243 
Stream size : 275 MiB (95%) 
IrisFNumber : 0.000000 

Audio 
ID : 4352 (0x1100) 
Menu ID : 1 (0x1) 
Format : AC-3 
Format/Info : Audio Coding 3 
Commercial name : Dolby Digital 
Codec ID : 129 
Duration : 1 min 31 s 
Bit rate mode : Constant 
Bit rate : 256 kb/s 
Channel(s) : 2 channels 
Channel layout : L R 
Sampling rate : 48.0 kHz 
Frame rate : 31.250 FPS (1536 SPF) 
Compression mode : Lossy 
Stream size : 2.80 MiB (1%) 
Service kind : Complete Main 

Text 
ID : 4608 (0x1200) 
Menu ID : 1 (0x1) 
Format : PGS 
Codec ID : 144 
Duration : 1 min 31 s

Genova città deserta Seconda parte rimaniamo a casa Μένουμε Σπίτι και εμείς

rimaniamo a casa Seconda parte Genova città deserta #StayHome Γένοβα δεύτερο μέρος Μένουμε Σπίτι και εμείς 2nd Part desert Genoa Geno...