Showing posts with label Fujfilm. Show all posts
Showing posts with label Fujfilm. Show all posts

2020 Spring is here!!! Fujifilm FinePix F660EXR 16.0 MP 15x 360mm zoom video test 1080


Spring is here!!!
 Fujifilm FinePix F660EXR 16.0 MP
 Fujinon 15x optical zoom f=4.4 - 66mm, equivalent to 24 - 360mm on a 35mm F/5.3  with ND filter
Movie recording 
1920 x 1080 pixels /  (30 frames / sec.) with stereo sound.
Optical zoom function can be used.

Complete name : DCIM\117_FUJI\DSCF7724.MOV 
Format : MPEG-4 
Format profile : QuickTime 
Codec ID : qt 0000.00 (qt ) 
File size : 114 MiB 
Duration : 1 min 7 s 
Overall bit rate : 14.2 Mb/s 
Movie_More : FUJIFILM DIGITAL CAMERA FinePix F660EXR 
Encoded date : UTC 2019-03-12 16:32:06 
Origin : Digital Camera 

Video 
ID : 1 
Format : AVC 
Format/Info : Advanced Video Codec 
Format profile : High@L4 
Format settings : 1 Ref Frames 
Format settings, CABAC : No 
Format settings, Reference frames : 1 frame 
Format settings, GOP : M=1, N=15 
Codec ID : avc1 
Codec ID/Info : Advanced Video Coding 
Duration : 1 min 7 s 
Bit rate : 12.6 Mb/s 
Width : 1 920 pixels 
Height : 1 080 pixels 
Display aspect ratio : 16:9 
Frame rate mode : Constant 
Frame rate : 29.970 (30000/1001) FPS 
Color space : YUV 
Chroma subsampling : 4:2:0 
Bit depth : 8 bits 
Scan type : Progressive 
Bits/(Pixel*Frame) : 0.202 
Stream size : 101 MiB (88%) 
Language : English 
Codec configuration box : avcC 

Audio 
ID : 2 
Format : PCM 
Format settings : Little / Signed 
Codec ID : sowt 
Duration : 1 min 7 s 
Bit rate mode : Constant 
Bit rate : 1 536 kb/s 
Channel(s) : 2 channels 
Channel layout : L R 
Sampling rate : 48.0 kHz 
Bit depth : 16 bits 
Stream size : 6.14 MiB (5%) 
Language : English


Clouds : Fujfilm X-A1 with OLYMPUS OM-SYSTEM ZUIKO MC AUTO-S 1:1,8 F=50mm




Clouds
Camera : Fujfilm X-A1
Lens : OLYMPUS OM-SYSTEM ZUIKO MC AUTO-S 1:1.8 F=50mm @1.8
Clouds  Fujfilm X-A1 adapted OM Olympus

Complete name : FUJIFILM\X-A1\Video\DSCF9875.MOV
Format : MPEG-4
Format profile : QuickTime
Codec ID : qt 0000.00 (qt )
File size : 118 MiB
Duration : 30 s 30 ms
Overall bit rate : 32.9 Mb/s
Movie_More : FUJIFILM DIGITAL CAMERA X-A1
Encoded date : UTC 2019-05-07 18:04:02
Tagged date : UTC 2019-05-07 18:04:02
Origin : Digital Camera

Video
ID : 1
Format : AVC
Format/Info : Advanced Video Codec
Format profile : High@L4.1
Format settings : 1 Ref Frames
Format settings, CABAC : No
Format settings, Reference frames : 1 frame
Format settings, GOP : M=1, N=15
Codec ID : avc1
Codec ID/Info : Advanced Video Coding
Duration : 30 s 30 ms
Bit rate : 31.1 Mb/s
Width : 1 920 pixels
Height : 1 080 pixels
Display aspect ratio : 16:9
Frame rate mode : Constant
Frame rate : 29.970 (30000/1001) FPS
Color space : YUV
Chroma subsampling : 4:2:0
Bit depth : 8 bits
Scan type : Progressive
Bits/(Pixel*Frame) : 0.500
Stream size : 111 MiB (95%)
Language : English
Encoded date : UTC 2019-05-07 18:04:02
Tagged date : UTC 2019-05-07 18:04:02
Codec configuration box : avcC

Audio
ID : 2
Format : PCM
Format settings : Little / Signed
Codec ID : sowt
Duration : 30 s 30 ms
Bit rate mode : Constant
Bit rate : 1 536 kb/s
Channel(s) : 2 channels
Channel layout : L R
Sampling rate : 48.0 kHz
Bit depth : 16 bits
Stream size : 2.75 MiB (2%)
Language : English
Encoded date : UTC 2019-05-07 18:04:02

2. Municipal Theater of Larissa : Fujfilm X-A1 with OLYMPUS OM-SYSTEM ZUIKO MC AUTO-S 1:1,8 F=50mm




Municipal Theater of Larissa
Camera : Fujfilm X-A1
Lens : OLYMPUS OM-SYSTEM ZUIKO MC AUTO-S 1:1.8 F=50mm @1.8
Fujfilm X-A1 adapted OM Olympus

Complete name : FUJIFILM\X-A1\Video\DSCF0113.MOV
Format : MPEG-4
Format profile : QuickTime
Codec ID : qt 0000.00 (qt )
File size : 228 MiB
Duration : 50 s 50 ms
Overall bit rate : 38.3 Mb/s
Movie_More : FUJIFILM DIGITAL CAMERA X-A1
Encoded date : UTC 2019-05-09 20:21:10
Tagged date : UTC 2019-05-09 20:21:10
Origin : Digital Camera

Video
ID : 1
Format : AVC
Format/Info : Advanced Video Codec
Format profile : High@L4.1
Format settings : 1 Ref Frames
Format settings, CABAC : No
Format settings, Reference frames : 1 frame
Format settings, GOP : M=1, N=15
Codec ID : avc1
Codec ID/Info : Advanced Video Coding
Duration : 50 s 50 ms
Bit rate : 36.6 Mb/s
Width : 1 920 pixels
Height : 1 080 pixels
Display aspect ratio : 16:9
Frame rate mode : Constant
Frame rate : 29.970 (30000/1001) FPS
Color space : YUV
Chroma subsampling : 4:2:0
Bit depth : 8 bits
Scan type : Progressive
Bits/(Pixel*Frame) : 0.589
Stream size : 218 MiB (96%)
Language : English
Encoded date : UTC 2019-05-09 20:21:10
Tagged date : UTC 2019-05-09 20:21:10
Codec configuration box : avcC

Audio
ID : 2
Format : PCM
Format settings : Little / Signed
Codec ID : sowt
Duration : 50 s 50 ms
Bit rate mode : Constant
Bit rate : 1 536 kb/s
Channel(s) : 2 channels
Channel layout : L R
Sampling rate : 48.0 kHz
Bit depth : 16 bits
Stream size : 4.58 MiB (2%)
Language : English
Encoded date : UTC 2019-05-09 20:21:10


1. Municipal Theater of Larissa : Fujfilm X-A1 with OLYMPUS OM-SYSTEM ZUIKO MC AUTO-S 1:1,8 F=50mm



Municipal Theater of Larissa
Camera : Fujfilm X-A1
Lens : OLYMPUS OM-SYSTEM ZUIKO MC AUTO-S 1:1.8 F=50mm @1.8
Fujfilm X-A1 adapted OM Olympus

Complete name : FUJIFILM\X-A1\Video\DSCF0112.MOV
Format : MPEG-4
Format profile : QuickTime
Codec ID : qt 0000.00 (qt )
File size : 151 MiB
Duration : 41 s 41 ms
Overall bit rate : 30.8 Mb/s
Movie_More : FUJIFILM DIGITAL CAMERA X-A1
Encoded date : UTC 2019-05-09 20:19:54
Tagged date : UTC 2019-05-09 20:19:54
Origin : Digital Camera

Video
ID : 1
Format : AVC
Format/Info : Advanced Video Codec
Format profile : High@L4.1
Format settings : 1 Ref Frames
Format settings, CABAC : No
Format settings, Reference frames : 1 frame
Format settings, GOP : M=1, N=15
Codec ID : avc1
Codec ID/Info : Advanced Video Coding
Duration : 41 s 41 ms
Bit rate : 29.0 Mb/s
Width : 1 920 pixels
Height : 1 080 pixels
Display aspect ratio : 16:9
Frame rate mode : Constant
Frame rate : 29.970 (30000/1001) FPS
Color space : YUV
Chroma subsampling : 4:2:0
Bit depth : 8 bits
Scan type : Progressive
Bits/(Pixel*Frame) : 0.467
Stream size : 142 MiB (94%)
Language : English
Encoded date : UTC 2019-05-09 20:19:54
Tagged date : UTC 2019-05-09 20:19:54
Codec configuration box : avcC

Audio
ID : 2
Format : PCM
Format settings : Little / Signed
Codec ID : sowt
Duration : 41 s 41 ms
Bit rate mode : Constant
Bit rate : 1 536 kb/s
Channel(s) : 2 channels
Channel layout : L R
Sampling rate : 48.0 kHz
Bit depth : 16 bits
Stream size : 3.76 MiB (2%)
Language : English
Encoded date : UTC 2019-05-09 20:19:54


Cafe at Municipal Theater Fujfilm X-A1 with OLYMPUS OM-SYSTEM ZUIKO MC AUTO-S 1:1,8 F=50mm




Cafe at Municipal Theater Larissa
Camera : Fujfilm X-A1
Lens : OLYMPUS OM-SYSTEM ZUIKO MC AUTO-S 1:1.8 F=50mm @1.8
Fujfilm X-A1 adapted OM Olympus

Complete name : F:\PHOTO\FUJIFILM\X-A1\Video\DSCF0116.MOV
Format : MPEG-4
Format profile : QuickTime
Codec ID : qt 0000.00 (qt )
File size : 318 MiB
Duration : 1 min 11 s
Overall bit rate : 37.5 Mb/s
Movie_More : FUJIFILM DIGITAL CAMERA X-A1
Encoded date : UTC 2019-05-09 20:23:20
Tagged date : UTC 2019-05-09 20:23:20
Origin : Digital Camera


Video
ID : 1
Format : AVC
Format/Info : Advanced Video Codec
Format profile : High@L4.1
Format settings : 1 Ref Frames
Format settings, CABAC : No
Format settings, Reference frames : 1 frame
Format settings, GOP : M=1, N=15
Codec ID : avc1
Codec ID/Info : Advanced Video Coding
Duration : 1 min 11 s
Bit rate : 35.9 Mb/s
Width : 1 920 pixels
Height : 1 080 pixels
Display aspect ratio : 16:9
Frame rate mode : Constant
Frame rate : 29.970 (30000/1001) FPS
Color space : YUV
Chroma subsampling : 4:2:0
Bit depth : 8 bits
Scan type : Progressive
Bits/(Pixel*Frame) : 0.577
Stream size : 304 MiB (96%)
Language : English
Encoded date : UTC 2019-05-09 20:23:20
Tagged date : UTC 2019-05-09 20:23:20
Codec configuration box : avcC

Audio
ID : 2
Format : PCM
Format settings : Little / Signed
Codec ID : sowt
Duration : 1 min 11 s
Bit rate mode : Constant
Bit rate : 1 536 kb/s
Channel(s) : 2 channels
Channel layout : L R
Sampling rate : 48.0 kHz
Bit depth : 16 bits
Stream size : 6.51 MiB (2%)
Language : English
Encoded date : UTC 2019-05-09 20:23:20

Genova città deserta Seconda parte rimaniamo a casa Μένουμε Σπίτι και εμείς

rimaniamo a casa Seconda parte Genova città deserta #StayHome Γένοβα δεύτερο μέρος Μένουμε Σπίτι και εμείς 2nd Part desert Genoa Geno...