Showing posts with label Zoom test. Show all posts
Showing posts with label Zoom test. Show all posts

2020 Spring is here!!! Fujifilm FinePix F660EXR 16.0 MP 15x 360mm zoom video test 1080


Spring is here!!!
 Fujifilm FinePix F660EXR 16.0 MP
 Fujinon 15x optical zoom f=4.4 - 66mm, equivalent to 24 - 360mm on a 35mm F/5.3  with ND filter
Movie recording 
1920 x 1080 pixels /  (30 frames / sec.) with stereo sound.
Optical zoom function can be used.

Complete name : DCIM\117_FUJI\DSCF7724.MOV 
Format : MPEG-4 
Format profile : QuickTime 
Codec ID : qt 0000.00 (qt ) 
File size : 114 MiB 
Duration : 1 min 7 s 
Overall bit rate : 14.2 Mb/s 
Movie_More : FUJIFILM DIGITAL CAMERA FinePix F660EXR 
Encoded date : UTC 2019-03-12 16:32:06 
Origin : Digital Camera 

Video 
ID : 1 
Format : AVC 
Format/Info : Advanced Video Codec 
Format profile : High@L4 
Format settings : 1 Ref Frames 
Format settings, CABAC : No 
Format settings, Reference frames : 1 frame 
Format settings, GOP : M=1, N=15 
Codec ID : avc1 
Codec ID/Info : Advanced Video Coding 
Duration : 1 min 7 s 
Bit rate : 12.6 Mb/s 
Width : 1 920 pixels 
Height : 1 080 pixels 
Display aspect ratio : 16:9 
Frame rate mode : Constant 
Frame rate : 29.970 (30000/1001) FPS 
Color space : YUV 
Chroma subsampling : 4:2:0 
Bit depth : 8 bits 
Scan type : Progressive 
Bits/(Pixel*Frame) : 0.202 
Stream size : 101 MiB (88%) 
Language : English 
Codec configuration box : avcC 

Audio 
ID : 2 
Format : PCM 
Format settings : Little / Signed 
Codec ID : sowt 
Duration : 1 min 7 s 
Bit rate mode : Constant 
Bit rate : 1 536 kb/s 
Channel(s) : 2 channels 
Channel layout : L R 
Sampling rate : 48.0 kHz 
Bit depth : 16 bits 
Stream size : 6.14 MiB (5%) 
Language : English


Birds antennas roofs testing zoom 10x : Canon HG10 video test AVCHD 1080 50i




Birds antennas roofs testing zoom 10x Camera : Canon HG10 Lens: Canon Hd video lens 6.1-61mm f/1.8-2.8. 35 mm equivalent: : 43.6-436 mm Mode AUTO stabilizer ON video test 1080 FHD 1440 x 1080 50i Don’t forget to click the bell to turn on post notifications! Nikolaos Instagram: https://www.instagram.com/sakellarisnikolaos/ Twitter: https://twitter.com/SakellarisNiko Facebook: https://www.facebook.com/nikolaos.sakellaris/ Blog: https://video-photo-blog.blogspot.com/ Complete name : Desktop\hg10\00017.MTS Format : BDAV Format/Info : Blu-ray Video File size : 162 MiB Duration : 1 min 33 s Overall bit rate mode : Variable Overall bit rate : 14.6 Mb/s Maximum Overall bit rate : 18.0 Mb/s Recorded date : 2020-01-08 16:02:45+02:00 Writing application : Canon Video ID : 4113 (0x1011) Menu ID : 1 (0x1) Format : AVC Format/Info : Advanced Video Codec Format profile : High@L4 Format settings : CABAC / 2 Ref Frames Format settings, CABAC : Yes Format settings, Reference frames : 2 frames Format settings, GOP : M=3, N=12 Codec ID : 27 Duration : 1 min 33 s Bit rate mode : Variable Bit rate : 13.7 Mb/s Maximum bit rate : 16.0 Mb/s Width : 1 440 pixels Height : 1 080 pixels Display aspect ratio : 16:9 Frame rate : 25.000 FPS Color space : YUV Chroma subsampling : 4:2:0 Bit depth : 8 bits Scan type : Interlaced Scan type, store method : Separated fields Scan order : Top Field First Bits/(Pixel*Frame) : 0.353 Stream size : 152 MiB (94%) Audio ID : 4352 (0x1100) Menu ID : 1 (0x1) Format : AC-3 Format/Info : Audio Coding 3 Commercial name : Dolby Digital Codec ID : 129 Duration : 1 min 33 s Bit rate mode : Constant Bit rate : 256 kb/s Channel(s) : 2 channels Channel layout : L R Sampling rate : 48.0 kHz Frame rate : 31.250 FPS (1536 SPF) Compression mode : Lossy Delay relative to video : -80 ms Stream size : 2.84 MiB (2%) Service kind : Complete Main

Birds in love testing zoom 10x : Canon HG10 video test AVCHD 1080 50i





Birds in love testing zoom 10x Camera : Canon HG10 Lens: Canon Hd video lens 6.1-61mm f/1.8-2.8. 35 mm equivalent: : 43.6-436 mm Mode AUTO stabilizer ON video test 1080 FHD 1440 x 1080 50i Don’t forget to click the bell to turn on post notifications! Nikolaos Instagram: https://www.instagram.com/sakellarisnikolaos/ Twitter: https://twitter.com/SakellarisNiko Facebook: https://www.facebook.com/nikolaos.sakellaris/ Blog: https://video-photo-blog.blogspot.com/ Complete name : C:\Users\user1\Desktop\hg10\00016.MTS Format : BDAV Format/Info : Blu-ray Video ca File size : 172 MiB Duration : 1 min 41 s Overall bit rate mode : Variable Overall bit rate : 14.2 Mb/s Maximum Overall bit rate : 18.0 Mb/s Recorded date : 2020-01-08 16:00:14+02:00 Writing application : Canon Video ID : 4113 (0x1011) Menu ID : 1 (0x1) Format : AVC Format/Info : Advanced Video Codec Format profile : High@L4 Format settings : CABAC / 2 Ref Frames Format settings, CABAC : Yes Format settings, Reference frames : 2 frames Format settings, GOP : M=3, N=12 Codec ID : 27 Duration : 1 min 41 s Bit rate mode : Variable Bit rate : 13.4 Mb/s Maximum bit rate : 16.0 Mb/s Width : 1 440 pixels Height : 1 080 pixels Display aspect ratio : 16:9 Frame rate : 25.000 FPS Color space : YUV Chroma subsampling : 4:2:0 Bit depth : 8 bits Scan type : Interlaced Scan type, store method : Separated fields Scan order : Top Field First Bits/(Pixel*Frame) : 0.344 Stream size : 162 MiB (94%) Audio ID : 4352 (0x1100) Menu ID : 1 (0x1) Format : AC-3 Format/Info : Audio Coding 3 Commercial name : Dolby Digital Codec ID : 129 Duration : 1 min 41 s Bit rate mode : Constant Bit rate : 256 kb/s Channel(s) : 2 channels Channel layout : L R Sampling rate : 48.0 kHz Frame rate : 31.250 FPS (1536 SPF) Compression mode : Lossy Delay relative to video : -80 ms Stream size : 3.11 MiB (2%) Service kind : Complete Main

Kissavos mountain Greece testing zoom 10x : Canon HG10 video test AVCHD 1080 50i




Kissavos mountain Greece testing zoom 10x Camera : Canon HG10 Lens: Canon Hd video lens 6.1-61mm f/1.8-2.8. 35 mm equivalent: : 43.6-436 mm Mode AUTO stabilizer ON video test 1080 FHD 1440 x 1080 50i Don’t forget to click the bell to turn on post notifications! Nikolaos Instagram: https://www.instagram.com/sakellarisnikolaos/ Twitter: https://twitter.com/SakellarisNiko Facebook: https://www.facebook.com/nikolaos.sakellaris/ Blog: https://video-photo-blog.blogspot.com/ Complete name : Desktop\hg10\00015.MTS Format : BDAV Format/Info : Blu-ray Video File size : 125 MiB Duration : 1 min 11 s Overall bit rate mode : Variable Overall bit rate : 14.6 Mb/s Maximum Overall bit rate : 18.0 Mb/s Recorded date : 2020-01-08 15:58:33+02:00 Writing application : Canon Video ID : 4113 (0x1011) Menu ID : 1 (0x1) Format : AVC Format/Info : Advanced Video Codec Format profile : High@L4 Format settings : CABAC / 2 Ref Frames Format settings, CABAC : Yes Format settings, Reference frames : 2 frames Format settings, GOP : M=3, N=12 Codec ID : 27 Duration : 1 min 11 s Bit rate mode : Variable Bit rate : 13.8 Mb/s Maximum bit rate : 16.0 Mb/s Width : 1 440 pixels Height : 1 080 pixels Display aspect ratio : 16:9 Frame rate : 25.000 FPS Color space : YUV Chroma subsampling : 4:2:0 Bit depth : 8 bits Scan type : Interlaced Scan type, store method : Separated fields Scan order : Top Field First Bits/(Pixel*Frame) : 0.355 Stream size : 118 MiB (94%) Audio ID : 4352 (0x1100) Menu ID : 1 (0x1) Format : AC-3 Format/Info : Audio Coding 3 Commercial name : Dolby Digital Codec ID : 129 Duration : 1 min 11 s Bit rate mode : Constant Bit rate : 256 kb/s Channel(s) : 2 channels Channel layout : L R Sampling rate : 48.0 kHz Frame rate : 31.250 FPS (1536 SPF) Compression mode : Lossy Delay relative to video : -80 ms Stream size : 2.18 MiB (2%) Service kind : Complete Main

Olympus mountain Greece testing zoom 10x : Canon HG10 video test AVCHD 1080 50i




Olympus mountain Greece testing zoom 10x Camera : Canon HG10 Lens: Canon Hd video lens 6.1-61mm f/1.8-2.8. 35 mm equivalent: : 43.6-436 mm Mode AUTO stabilizer ON video test 1080 FHD 1440 x 1080 50i Don’t forget to click the bell to turn on post notifications! Nikolaos Instagram: https://www.instagram.com/sakellarisnikolaos/ Twitter: https://twitter.com/SakellarisNiko Facebook: https://www.facebook.com/nikolaos.sakellaris/ Blog: https://video-photo-blog.blogspot.com/ Complete name : Desktop\hg10\00014.MTS Format : BDAV Format/Info : Blu-ray Video File size : 149 MiB Duration : 1 min 28 s Overall bit rate mode : Variable Overall bit rate : 14.1 Mb/s Maximum Overall bit rate : 18.0 Mb/s Recorded date : 2020-01-08 15:56:51+02:00 Writing application : Canon Video ID : 4113 (0x1011) Menu ID : 1 (0x1) Format : AVC Format/Info : Advanced Video Codec Format profile : High@L4 Format settings : CABAC / 2 Ref Frames Format settings, CABAC : Yes Format settings, Reference frames : 2 frames Format settings, GOP : M=3, N=12 Codec ID : 27 Duration : 1 min 28 s Bit rate mode : Variable Bit rate : 13.2 Mb/s Maximum bit rate : 16.0 Mb/s Width : 1 440 pixels Height : 1 080 pixels Display aspect ratio : 16:9 Frame rate : 25.000 FPS Color space : YUV Chroma subsampling : 4:2:0 Bit depth : 8 bits Scan type : Interlaced Scan type, store method : Separated fields Scan order : Top Field First Bits/(Pixel*Frame) : 0.341 Stream size : 140 MiB (94%) Audio ID : 4352 (0x1100) Menu ID : 1 (0x1) Format : AC-3 Format/Info : Audio Coding 3 Commercial name : Dolby Digital Codec ID : 129 Duration : 1 min 28 s Bit rate mode : Constant Bit rate : 256 kb/s Channel(s) : 2 channels Channel layout : L R Sampling rate : 48.0 kHz Frame rate : 31.250 FPS (1536 SPF) Compression mode : Lossy Delay relative to video : -80 ms Stream size : 2.71 MiB (2%) Service kind : Complete Main

Genova città deserta Seconda parte rimaniamo a casa Μένουμε Σπίτι και εμείς

rimaniamo a casa Seconda parte Genova città deserta #StayHome Γένοβα δεύτερο μέρος Μένουμε Σπίτι και εμείς 2nd Part desert Genoa Geno...