Showing posts with label Sony E 3.5-5.6 / 18-55 OSS Ø49. Show all posts
Showing posts with label Sony E 3.5-5.6 / 18-55 OSS Ø49. Show all posts

Golden clouds in a sky at sunset - Sony NEX 5R with Sony E 18-55 OSS iso 100 @ 18mm f/8 50p




Golden clouds in a sky at sunset over the city of Larissa Camera : Sony NEX 5R in mode M auto iso 100 1/100 stabilazer IS ON focus to the clouds Lens: Sony E 3.5-5.6 / 18-55 OSS Ø49 @ 18mm f/8 video test 1920 1080 50p Don’t forget to click the bell to turn on post notifications! Nikolaos Instagram: https://www.instagram.com/sakellarisnikolaos/ Twitter: https://twitter.com/SakellarisNiko Facebook: https://www.facebook.com/nikolaos.sakellaris/ Blog: https://video-photo-blog.blogspot.com/ Sony NEX 5R Sony E 3.5-5.6 / 18-55 Dramatic and picturesque evening scene. Complete name : AVCHD\BDMV\STREAM\00030.MTS Format : BDAV Format/Info : Blu-ray Video File size : 209 MiB Duration : 1 min 6 s Overall bit rate mode : Variable Overall bit rate : 26.5 Mb/s Maximum Overall bit rate : 28.0 Mb/s Recorded date : 2020-02-22 19:10:39+02:00 Writing application : Sony NEX-5R Video ID : 4113 (0x1011) Menu ID : 1 (0x1) Format : AVC Format/Info : Advanced Video Codec Format profile : High@L4.2 Format settings : CABAC / 2 Ref Frames Format settings, CABAC : Yes Format settings, Reference frames : 2 frames Format settings, GOP : M=1, N=12 Codec ID : 27 Duration : 1 min 6 s Bit rate mode : Variable Bit rate : 25.1 Mb/s Maximum bit rate : 26.0 Mb/s Width : 1 920 pixels Height : 1 080 pixels Display aspect ratio : 16:9 Frame rate : 50.000 FPS Color space : YUV Chroma subsampling : 4:2:0 Bit depth : 8 bits Scan type : Progressive Bits/(Pixel*Frame) : 0.243 Stream size : 199 MiB (95%) IrisFNumber : 8.000000 Audio ID : 4352 (0x1100) Menu ID : 1 (0x1) Format : AC-3 Format/Info : Audio Coding 3 Commercial name : Dolby Digital Codec ID : 129 Duration : 1 min 6 s Bit rate mode : Constant Bit rate : 256 kb/s Channel(s) : 2 channels Channel layout : L R Sampling rate : 48.0 kHz Frame rate : 31.250 FPS (1536 SPF) Compression mode : Lossy Stream size : 2.02 MiB (1%) Service kind : Complete Main Text ID : 4608 (0x1200) Menu ID : 1 (0x1) Format : PGS Codec ID : 144 Duration : 1 min 5 s

Grey Clouds over the city - Sony NEX 5R with Sony E 18-55 OSS iso 100 @ 18mm f/5.6 50p




Grey Clouds over the city of Larissa Camera : Sony NEX 5R in mode M auto iso 100 1/100 stabilazer IS ON focus to the clouds Lens: Sony E 3.5-5.6 / 18-55 OSS Ø49 @ 18mm f/5.6 video test 1920 1080 50p Don’t forget to click the bell to turn on post notifications! Nikolaos Instagram: https://www.instagram.com/sakellarisnikolaos/ Twitter: https://twitter.com/SakellarisNiko Facebook: https://www.facebook.com/nikolaos.sakellaris/ Blog: https://video-photo-blog.blogspot.com/ Sony NEX 5R Sony E 3.5-5.6 / 18-55 Complete name : AVCHD\BDMV\STREAM\00029.MTS Format : BDAV Format/Info : Blu-ray Video File size : 206 MiB Duration : 1 min 5 s Overall bit rate mode : Variable Overall bit rate : 26.4 Mb/s Maximum Overall bit rate : 28.0 Mb/s Recorded date : 2020-02-22 19:06:04+02:00 Writing application : Sony NEX-5R Video ID : 4113 (0x1011) Menu ID : 1 (0x1) Format : AVC Format/Info : Advanced Video Codec Format profile : High@L4.2 Format settings : CABAC / 2 Ref Frames Format settings, CABAC : Yes Format settings, Reference frames : 2 frames Format settings, GOP : M=1, N=12 Codec ID : 27 Duration : 1 min 5 s Bit rate mode : Variable Bit rate : 25.1 Mb/s Maximum bit rate : 26.0 Mb/s Width : 1 920 pixels Height : 1 080 pixels Display aspect ratio : 16:9 Frame rate : 50.000 FPS Color space : YUV Chroma subsampling : 4:2:0 Bit depth : 8 bits Scan type : Progressive Bits/(Pixel*Frame) : 0.242 Stream size : 195 MiB (95%) IrisFNumber : 5.600000 Audio ID : 4352 (0x1100) Menu ID : 1 (0x1) Format : AC-3 Format/Info : Audio Coding 3 Commercial name : Dolby Digital Codec ID : 129 Duration : 1 min 5 s Bit rate mode : Constant Bit rate : 256 kb/s Channel(s) : 2 channels Channel layout : L R Sampling rate : 48.0 kHz Frame rate : 31.250 FPS (1536 SPF) Compression mode : Lossy Stream size : 1.99 MiB (1%) Service kind : Complete Main Text ID : 4608 (0x1200) Menu ID : 1 (0x1) Format : PGS Codec ID : 144 Duration : 1 min 4 s

Sunset Full of Clouds - Sony NEX 5R with Sony E 18-55 OSS iso 100 @ 55mm f/8




Sunset Full of Clouds Larissa Greece Camera : Sony NEX 5R in mode M auto iso 100 1/100 stabilazer IS ON focus to the clouds Lens: Sony E 3.5-5.6 / 18-55 OSS Ø49 @ 55mm f/8 video test 1920 1080 50p Don’t forget to click the bell to turn on post notifications! Nikolaos Instagram: https://www.instagram.com/sakellarisnikolaos/ Twitter: https://twitter.com/SakellarisNiko Facebook: https://www.facebook.com/nikolaos.sakellaris/ Blog: https://video-photo-blog.blogspot.com/ Sony NEX 5R Sony E 3.5-5.6 / 18-55 Complete name : AVCHD\BDMV\STREAM\00028.MTS Format : BDAV Format/Info : Blu-ray Video File size : 261 MiB Duration : 1 min 22 s Overall bit rate mode : Variable Overall bit rate : 26.5 Mb/s Maximum Overall bit rate : 28.0 Mb/s Recorded date : 2020-02-22 19:03:33+02:00 Writing application : Sony NEX-5R Video ID : 4113 (0x1011) Menu ID : 1 (0x1) Format : AVC Format/Info : Advanced Video Codec Format profile : High@L4.2 Format settings : CABAC / 2 Ref Frames Format settings, CABAC : Yes Format settings, Reference frames : 2 frames Format settings, GOP : M=1, N=12 Codec ID : 27 Duration : 1 min 22 s Bit rate mode : Variable Bit rate : 25.2 Mb/s Maximum bit rate : 26.0 Mb/s Width : 1 920 pixels Height : 1 080 pixels Display aspect ratio : 16:9 Frame rate : 50.000 FPS Color space : YUV Chroma subsampling : 4:2:0 Bit depth : 8 bits Scan type : Progressive Bits/(Pixel*Frame) : 0.243 Stream size : 248 MiB (95%) IrisFNumber : 8.000000 Audio ID : 4352 (0x1100) Menu ID : 1 (0x1) Format : AC-3 Format/Info : Audio Coding 3 Commercial name : Dolby Digital Codec ID : 129 Duration : 1 min 22 s Bit rate mode : Constant Bit rate : 256 kb/s Channel(s) : 2 channels Channel layout : L R Sampling rate : 48.0 kHz Frame rate : 31.250 FPS (1536 SPF) Compression mode : Lossy Stream size : 2.52 MiB (1%) Service kind : Complete Main Text ID : 4608 (0x1200) Menu ID : 1 (0x1) Format : PGS Codec ID : 144 Duration : 1 min 22 s

Beautiful Sunset Full of Clouds - Sony NEX 5R with Sony E 18-55 OSS iso 100 @ 18mm f/8 50p





Shades of blue, red and yellow flooded the sky at dusk on Tuesday, February 18. The phenomenon of this colorful cloud formation is considered rare and is called "Fallstreak Hole". Αποχρώσεις του μπλε, του κόκκινου και του κίτρινου «πλημμύρισαν» τον ουρανό, το σούρουπο της Τρίτης 18 Φεβρουαρίου. Το φαινόμενο αυτού του σχηματισμού πολύχρωμων νεφών θεωρείται σπάνιο και ονομάζεται «Fallstreak Hole». Beautiful Sunset Full of Clouds Camera : Sony NEX 5R in mode M auto iso 100 1/100 stabilazer IS ON focus to the clouds Lens: Sony E 3.5-5.6 / 18-55 OSS Ø49 @ 18mm f/8 video test 1920 1080 50p Don’t forget to click the bell to turn on post notifications! Nikolaos Instagram: https://www.instagram.com/sakellarisnikolaos/ Twitter: https://twitter.com/SakellarisNiko Facebook: https://www.facebook.com/nikolaos.sakellaris/ Blog: https://video-photo-blog.blogspot.com/ Sony NEX 5R Sony E 3.5-5.6 / 18-55 Complete name : AVCHD\BDMV\STREAM\00027.MTS Format : BDAV Format/Info : Blu-ray Video File size : 401 MiB Duration : 2 min 6 s Overall bit rate mode : Variable Overall bit rate : 26.5 Mb/s Maximum Overall bit rate : 28.0 Mb/s Recorded date : 2020-02-22 19:00:44+02:00 Writing application : Sony NEX-5R Video ID : 4113 (0x1011) Menu ID : 1 (0x1) Format : AVC Format/Info : Advanced Video Codec Format profile : High@L4.2 Format settings : CABAC / 2 Ref Frames Format settings, CABAC : Yes Format settings, Reference frames : 2 frames Format settings, GOP : M=1, N=12 Codec ID : 27 Duration : 2 min 6 s Bit rate mode : Variable Bit rate : 25.2 Mb/s Maximum bit rate : 26.0 Mb/s Width : 1 920 pixels Height : 1 080 pixels Display aspect ratio : 16:9 Frame rate : 50.000 FPS Color space : YUV Chroma subsampling : 4:2:0 Bit depth : 8 bits Scan type : Progressive Bits/(Pixel*Frame) : 0.243 Stream size : 381 MiB (95%) IrisFNumber : 8.000000 Audio ID : 4352 (0x1100) Menu ID : 1 (0x1) Format : AC-3 Format/Info : Audio Coding 3 Commercial name : Dolby Digital Codec ID : 129 Duration : 2 min 6 s Bit rate mode : Constant Bit rate : 256 kb/s Channel(s) : 2 channels Channel layout : L R Sampling rate : 48.0 kHz Frame rate : 31.250 FPS (1536 SPF) Compression mode : Lossy Stream size : 3.87 MiB (1%) Service kind : Complete Main Text ID : 4608 (0x1200) Menu ID : 1 (0x1) Format : PGS Codec ID : 144 Duration : 2 min 6 s

Clouds over the church - Sony NEX 5R with Sony E 3.5-5.6 / 18-55 OSS Ø49 iso 100 50p




Clouds over the church trees Camera : Sony NEX 5R in mode M auto iso 100 1/500 stabilazer IS ON focus to the clouds Lens: Sony E 3.5-5.6 / 18-55 OSS Ø49 @ 18mm f/3.5 video test 1920 1080 50p Don’t forget to click the bell to turn on post notifications! Nikolaos Instagram: https://www.instagram.com/sakellarisnikolaos/ Twitter: https://twitter.com/SakellarisNiko Facebook: https://www.facebook.com/nikolaos.sakellaris/ Blog: https://video-photo-blog.blogspot.com/ Sony NEX 5R Sony E 3.5-5.6 / 18-55 Complete name : AVCHD\BDMV\STREAM\00026.MTS Format : BDAV Format/Info : Blu-ray Video File size : 397 MiB Duration : 2 min 5 s Overall bit rate mode : Variable Overall bit rate : 26.5 Mb/s Maximum Overall bit rate : 28.0 Mb/s Recorded date : 2020-02-22 18:36:11+02:00 Writing application : Sony NEX-5R Video ID : 4113 (0x1011) Menu ID : 1 (0x1) Format : AVC Format/Info : Advanced Video Codec Format profile : High@L4.2 Format settings : CABAC / 2 Ref Frames Format settings, CABAC : Yes Format settings, Reference frames : 2 frames Format settings, GOP : M=1, N=12 Codec ID : 27 Duration : 2 min 5 s Bit rate mode : Variable Bit rate : 25.2 Mb/s Maximum bit rate : 26.0 Mb/s Width : 1 920 pixels Height : 1 080 pixels Display aspect ratio : 16:9 Frame rate : 50.000 FPS Color space : YUV Chroma subsampling : 4:2:0 Bit depth : 8 bits Scan type : Progressive Bits/(Pixel*Frame) : 0.243 Stream size : 378 MiB (95%) IrisFNumber : 3.500000 Audio ID : 4352 (0x1100) Menu ID : 1 (0x1) Format : AC-3 Format/Info : Audio Coding 3 Commercial name : Dolby Digital Codec ID : 129 Duration : 2 min 5 s Bit rate mode : Constant Bit rate : 256 kb/s Channel(s) : 2 channels Channel layout : L R Sampling rate : 48.0 kHz Frame rate : 31.250 FPS (1536 SPF) Compression mode : Lossy Stream size : 3.84 MiB (1%) Service kind : Complete Main Text ID : 4608 (0x1200) Menu ID : 1 (0x1) Format : PGS Codec ID : 144 Duration : 2 min 5 s

After sunset Sony NEX 5R with Sony E 3.5-5.6 / 18-55 OSS Ø49 iso 800



After sunset Sunset birds Camera : Sony NEX 5R in mode M auto iso 800 1/25 stabilazer IS ON focus to the clouds Lens: Sony E 3.5-5.6 / 18-55 OSS Ø49 @ 18mm f/3.5 video test 1920 1080 50p Don’t forget to click the bell to turn on post notifications! Nikolaos Instagram: https://www.instagram.com/sakellarisnikolaos/ Twitter: https://twitter.com/SakellarisNiko Facebook: https://www.facebook.com/nikolaos.sakellaris/ Blog: https://video-photo-blog.blogspot.com/ Sony NEX 5R Sony E 3.5-5.6 / 18-55 Complete name : AVCHD\BDMV\STREAM\00024.MTS Format : BDAV Format/Info : Blu-ray Video File size : 290 MiB Duration : 1 min 31 s Overall bit rate mode : Variable Overall bit rate : 26.5 Mb/s Maximum Overall bit rate : 28.0 Mb/s Recorded date : 2020-02-18 19:45:29+02:00 Writing application : Sony NEX-5R Video ID : 4113 (0x1011) Menu ID : 1 (0x1) Format : AVC Format/Info : Advanced Video Codec Format profile : High@L4.2 Format settings : CABAC / 2 Ref Frames Format settings, CABAC : Yes Format settings, Reference frames : 2 frames Format settings, GOP : M=1, N=12 Codec ID : 27 Duration : 1 min 31 s Bit rate mode : Variable Bit rate : 25.2 Mb/s Maximum bit rate : 26.0 Mb/s Width : 1 920 pixels Height : 1 080 pixels Display aspect ratio : 16:9 Frame rate : 50.000 FPS Color space : YUV Chroma subsampling : 4:2:0 Bit depth : 8 bits Scan type : Progressive Bits/(Pixel*Frame) : 0.243 Stream size : 276 MiB (95%) IrisFNumber : 3.500000 Audio ID : 4352 (0x1100) Menu ID : 1 (0x1) Format : AC-3 Format/Info : Audio Coding 3 Commercial name : Dolby Digital Codec ID : 129 Duration : 1 min 31 s Bit rate mode : Constant Bit rate : 256 kb/s Channel(s) : 2 channels Channel layout : L R Sampling rate : 48.0 kHz Frame rate : 31.250 FPS (1536 SPF) Compression mode : Lossy Stream size : 2.80 MiB (1%) Service kind : Complete Main Text ID : 4608 (0x1200) Menu ID : 1 (0x1) Format : PGS Codec ID : 144 Duration : 1 min 31 s

Genova città deserta Seconda parte rimaniamo a casa Μένουμε Σπίτι και εμείς

rimaniamo a casa Seconda parte Genova città deserta #StayHome Γένοβα δεύτερο μέρος Μένουμε Σπίτι και εμείς 2nd Part desert Genoa Geno...