Showing posts with label Sunrise. Show all posts
Showing posts with label Sunrise. Show all posts

Sunrise : Xiaomi Yi M1 with TAMRON 1:3.8 1:4/210 80-210mm CF TELE MACRO 103A adapted to M4/3 4k



Sunrise  Larissa Greece

  • Camera : Xiaomi Yi M1 mirrorless Sony IMX269
  • Lens : TAMRON 1:3.8 1:4/210 80-210mm CF TELE MACRO BBAR MC 103A ADAPTALL Ø58 @f/.8 @80mm
  • Mode : A ISO 200 EV 0,0
  • Video Stabilization OFF Video 3840x2160 @ 30fps

Complete name : 103YICAM\PB160556.MP4
Format : MPEG-4
Format profile : Base Media / Version 2
Codec ID : mp42 (mp42/avc1)
File size : 617 MiB
Duration : 1 min 8 s
Overall bit rate mode : Variable
Overall bit rate : 76.1 Mb/s
Encoded date : UTC 2019-11-16 06:57:39


Video
ID : 1
Format : AVC
Format/Info : Advanced Video Codec
Format profile : High@L5.1
Format settings : 1 Ref Frames
Format settings, CABAC : No
Format settings, Reference frames : 1 frame
Format settings, GOP : M=1, N=15
Codec ID : avc1
Codec ID/Info : Advanced Video Coding
Duration : 1 min 8 s
Bit rate : 75.9 Mb/s
Width : 3 840 pixels
Height : 2 160 pixels
Display aspect ratio : 16:9
Frame rate mode : Constant
Frame rate : 29.970 (30000/1001) FPS
Color space : YUV
Chroma subsampling : 4:2:0
Bit depth : 8 bits
Scan type : Progressive
Bits/(Pixel*Frame) : 0.305
Stream size : 616 MiB (100%)
Language : English
Encoded date : UTC 2019-11-16 06:57:39
Tagged date : UTC 2019-11-16 06:57:39
Color range : Full
Color primaries : BT.601 NTSC
Transfer characteristics : BT.709
Matrix coefficients : BT.601
Menus : 3
Codec configuration box : avcC

Audio
ID : 2
Format : AAC LC
Format/Info : Advanced Audio Codec Low Complexity
Codec ID : mp4a-40-2
Duration : 1 min 8 s
Source duration : 1 min 8 s
Bit rate mode : Variable
Bit rate : 128 kb/s
Maximum bit rate : 192 kb/s
Channel(s) : 2 channels
Channel layout : L R
Sampling rate : 48.0 kHz
Frame rate : 46.875 FPS (1024 SPF)
Compression mode : Lossy
Stream size : 1.03 MiB (0%)
Source stream size : 1.03 MiB (0%)
Language : English
Encoded date : UTC 2019-11-16 06:57:39

Genova città deserta Seconda parte rimaniamo a casa Μένουμε Σπίτι και εμείς

rimaniamo a casa Seconda parte Genova città deserta #StayHome Γένοβα δεύτερο μέρος Μένουμε Σπίτι και εμείς 2nd Part desert Genoa Geno...