Showing posts with label Xiaomi. Show all posts
Showing posts with label Xiaomi. Show all posts

Pinios river river Xiaomi Yi M1 with Vivitar-55MM 1:2.8 MC MACRO Ø62 FD adapted to M4/3



Pinios river Larissa Greece Camera : Xiaomi Yi M1 http://bit.ly/33QoqBP mirrorless Sony IMX269 Lens : Vivitar-55MM 1:2.8 MC MACRO Ø62 FD Mode : A ISO 200 EV 0,0 Video Stabilization OFF Video 3840x2160 @ 30fps Don’t forget to click the bell to turn on post notifications! Nikolaos Instagram: https://www.instagram.com/sakellarisnikolaos/ Twitter: https://twitter.com/SakellarisNiko Facebook: https://www.facebook.com/nikolaos.sakellaris/ Blog: https://video-photo-blog.blogspot.com/ FD adapted MFT Yi M1 FD adapted video test FD adapted M4/3 Complete name : F:\PHOTO\XIAOMI\YI M1\P2080104.MP4 Format : MPEG-4 Format profile : Base Media / Version 2 Codec ID : mp42 (mp42/avc1) File size : 925 MiB Duration : 1 min 41 s Overall bit rate mode : Variable Overall bit rate : 76.8 Mb/s Encoded date : UTC 2020-02-08 17:17:48 Video ID : 1 Format : AVC Format/Info : Advanced Video Codec Format profile : High@L5.1 Format settings : 1 Ref Frames Format settings, CABAC : No Format settings, Reference frames : 1 frame Format settings, GOP : M=1, N=15 Codec ID : avc1 Codec ID/Info : Advanced Video Coding Duration : 1 min 41 s Bit rate : 76.6 Mb/s Width : 3 840 pixels Height : 2 160 pixels Display aspect ratio : 16:9 Frame rate mode : Constant Frame rate : 29.970 (30000/1001) FPS Color space : YUV Chroma subsampling : 4:2:0 Bit depth : 8 bits Scan type : Progressive Bits/(Pixel*Frame) : 0.308 Stream size : 924 MiB (100%) Language : English Color range : Full Color primaries : BT.601 NTSC Transfer characteristics : BT.709 Matrix coefficients : BT.601 Menus : 3 Codec configuration box : avcC Audio ID : 2 Format : AAC LC Format/Info : Advanced Audio Codec Low Complexity Codec ID : mp4a-40-2 Duration : 1 min 41 s Source duration : 1 min 41 s Bit rate mode : Variable Bit rate : 128 kb/s Maximum bit rate : 192 kb/s Channel(s) : 2 channels Channel layout : L R Sampling rate : 48.0 kHz Frame rate : 46.875 FPS (1024 SPF) Compression mode : Lossy Stream size : 1.53 MiB (0%) Source stream size : 1.54 MiB (0%) Language : English

Graffiti under tne bridge river Xiaomi Yi M1 with Vivitar-55MM 1:2.8 MC MACRO Ø62 FD adapted to M4/3




Graffiti under tne bridge Pinios river Larissa Greece Camera : Xiaomi Yi M1 http://bit.ly/33QoqBP mirrorless Sony IMX269 Lens : Vivitar-55MM 1:2.8 MC MACRO Ø62 FD Mode : A ISO 200 EV 0,0 Video Stabilization OFF Video 3840x2160 @ 30fps Don’t forget to click the bell to turn on post notifications! Nikolaos Instagram: https://www.instagram.com/sakellarisnikolaos/ Twitter: https://twitter.com/SakellarisNiko Facebook: https://www.facebook.com/nikolaos.sakellaris/ Blog: https://video-photo-blog.blogspot.com/ FD adapted MFT Yi M1 FD adapted video test FD adapted M4/3

Larissa Pinios river Xiaomi Yi M1 with Vivitar-55MM 1:2.8 MC MACRO Ø62 FD adapted to M4/3 77.6 Mb/s




Pinios river Larissa Greece Camera : Xiaomi Yi M1 http://bit.ly/33QoqBP mirrorless Sony IMX269 Lens : Vivitar-55MM 1:2.8 MC MACRO Ø62 FD Mode : A ISO 200 EV 0,0 Video Stabilization OFF Video 3840x2160 @ 30fps Don’t forget to click the bell to turn on post notifications! Nikolaos Instagram: https://www.instagram.com/sakellarisnikolaos/ Twitter: https://twitter.com/SakellarisNiko Facebook: https://www.facebook.com/nikolaos.sakellaris/ Blog: https://video-photo-blog.blogspot.com/ FD adapted MFT Yi M1 FD adapted video test FD adapted M4/3 Complete name : PHOTO\XIAOMI\YI M1\P2080040.MP4 Format : MPEG-4 Format profile : Base Media / Version 2 Codec ID : mp42 (mp42/avc1) File size : 1.12 GiB Duration : 2 min 4 s Overall bit rate mode : Variable Overall bit rate : 77.6 Mb/s Encoded date : UTC 2020-02-08 16:44:45 Video ID : 1 Format : AVC Format/Info : Advanced Video Codec Format profile : High@L5.1 Format settings : 1 Ref Frames Format settings, CABAC : No Format settings, Reference frames : 1 frame Format settings, GOP : M=1, N=15 Codec ID : avc1 Codec ID/Info : Advanced Video Coding Duration : 2 min 4 s Bit rate : 77.5 Mb/s Width : 3 840 pixels Height : 2 160 pixels Display aspect ratio : 16:9 Frame rate mode : Constant Frame rate : 29.970 (30000/1001) FPS Color space : YUV Chroma subsampling : 4:2:0 Bit depth : 8 bits Scan type : Progressive Bits/(Pixel*Frame) : 0.312 Stream size : 1.12 GiB (100%) Language : English Color range : Full Color primaries : BT.601 NTSC Transfer characteristics : BT.709 Matrix coefficients : BT.601 Menus : 3 Codec configuration box : avcC Audio ID : 2 Format : AAC LC Format/Info : Advanced Audio Codec Low Complexity Codec ID : mp4a-40-2 Duration : 2 min 4 s Source duration : 2 min 4 s Bit rate mode : Variable Bit rate : 128 kb/s Maximum bit rate : 192 kb/s Channel(s) : 2 channels Channel layout : L R Sampling rate : 48.0 kHz Frame rate : 46.875 FPS (1024 SPF) Compression mode : Lossy Stream size : 1.88 MiB (0%) Source stream size : 1.88 MiB (0%) Language : English

Sunset Birds : Xiaomi Yi M1 with Canon FL 50mm f/1.4 FD adapted to M4/3 UHD 4k test footage




Sunset Birds Larissa Greece Camera : Xiaomi Yi M1 http://bit.ly/33QoqBP mirrorless Sony IMX269 Lens : Canon FL 50mm f/1.4 @ f/1,7 http://bit.ly/2NVlFJP Mode : S 1/100 ISO 200 EV 0,0 Video Stabilization OFF Video 3840x2160 @ 30fps Don’t forget to click the bell to turn on post notifications! Nikolaos Instagram: https://www.instagram.com/sakellarisnikolaos/ Twitter: https://twitter.com/SakellarisNiko Facebook: https://www.facebook.com/nikolaos.sakellaris/ Blog: https://video-photo-blog.blogspot.com/ FD adapted MFT Yi M1 FD adapted video test footage FD adapted M4/3

Sunrise : Xiaomi Yi M1 with TAMRON 1:3.8 1:4/210 80-210mm CF TELE MACRO 103A adapted to M4/3 4k



Sunrise  Larissa Greece

  • Camera : Xiaomi Yi M1 mirrorless Sony IMX269
  • Lens : TAMRON 1:3.8 1:4/210 80-210mm CF TELE MACRO BBAR MC 103A ADAPTALL Ø58 @f/.8 @80mm
  • Mode : A ISO 200 EV 0,0
  • Video Stabilization OFF Video 3840x2160 @ 30fps

Complete name : 103YICAM\PB160556.MP4
Format : MPEG-4
Format profile : Base Media / Version 2
Codec ID : mp42 (mp42/avc1)
File size : 617 MiB
Duration : 1 min 8 s
Overall bit rate mode : Variable
Overall bit rate : 76.1 Mb/s
Encoded date : UTC 2019-11-16 06:57:39


Video
ID : 1
Format : AVC
Format/Info : Advanced Video Codec
Format profile : High@L5.1
Format settings : 1 Ref Frames
Format settings, CABAC : No
Format settings, Reference frames : 1 frame
Format settings, GOP : M=1, N=15
Codec ID : avc1
Codec ID/Info : Advanced Video Coding
Duration : 1 min 8 s
Bit rate : 75.9 Mb/s
Width : 3 840 pixels
Height : 2 160 pixels
Display aspect ratio : 16:9
Frame rate mode : Constant
Frame rate : 29.970 (30000/1001) FPS
Color space : YUV
Chroma subsampling : 4:2:0
Bit depth : 8 bits
Scan type : Progressive
Bits/(Pixel*Frame) : 0.305
Stream size : 616 MiB (100%)
Language : English
Encoded date : UTC 2019-11-16 06:57:39
Tagged date : UTC 2019-11-16 06:57:39
Color range : Full
Color primaries : BT.601 NTSC
Transfer characteristics : BT.709
Matrix coefficients : BT.601
Menus : 3
Codec configuration box : avcC

Audio
ID : 2
Format : AAC LC
Format/Info : Advanced Audio Codec Low Complexity
Codec ID : mp4a-40-2
Duration : 1 min 8 s
Source duration : 1 min 8 s
Bit rate mode : Variable
Bit rate : 128 kb/s
Maximum bit rate : 192 kb/s
Channel(s) : 2 channels
Channel layout : L R
Sampling rate : 48.0 kHz
Frame rate : 46.875 FPS (1024 SPF)
Compression mode : Lossy
Stream size : 1.03 MiB (0%)
Source stream size : 1.03 MiB (0%)
Language : English
Encoded date : UTC 2019-11-16 06:57:39

Pink Rose : Xiaomi Yi M1 with TAMRON 1:3.8 1:4/210 80-210mm CF TELE MACRO 103A adapted to M4/3 4k




Pink Rose Larissa Greece
  • Camera : Xiaomi Yi M1 mirrorless Sony IMX269
  • Lens : TAMRON 1:3.8 1:4/210 80-210mm CF TELE MACRO BBAR MC 103A ADAPTALL Ø58 @ f/3.8 @ 210mm
  • Mode : A ISO 200 EV 0,0
  • Video Stabilization OFF Video 3840x2160 @ 30fps

  1. Xiaomi Yi M1 103A TAMRON 80-210mm
  2. TAMRON F/3.8 F/4@210mm 80-210mm 103A
  3. ADAPTALL adapted FD adapted MFT
  4. Yi M1 ADAPTALL adapted video test

Complete name : DCIM\103YICAM\PB150528.MP4
Format : MPEG-4
Format profile : Base Media / Version 2
Codec ID : mp42 (mp42/avc1)
File size : 980 MiB
Duration : 1 min 48 s
Overall bit rate mode : Variable
Overall bit rate : 76.1 Mb/s
Encoded date : UTC 2019-11-15 16:28:37
Video
ID : 1
Format : AVC
Format/Info : Advanced Video Codec
Format profile : High@L5.1
Format settings : 1 Ref Frames
Format settings, CABAC : No
Format settings, Reference frames : 1 frame
Format settings, GOP : M=1, N=15
Codec ID : avc1
Codec ID/Info : Advanced Video Coding
Duration : 1 min 48 s
Bit rate : 75.9 Mb/s
Width : 3 840 pixels
Height : 2 160 pixels
Display aspect ratio : 16:9
Frame rate mode : Constant
Frame rate : 29.970 (30000/1001) FPS
Color space : YUV
Chroma subsampling : 4:2:0
Bit depth : 8 bits
Scan type : Progressive
Bits/(Pixel*Frame) : 0.305
Stream size : 979 MiB (100%)
Language : English
Encoded date : UTC 2019-11-15 16:28:37
Tagged date : UTC 2019-11-15 16:28:37
Color range : Full
Color primaries : BT.601 NTSC
Transfer characteristics : BT.709
Matrix coefficients : BT.601
Menus : 3
Codec configuration box : avcC

Audio
ID : 2
Format : AAC LC
Format/Info : Advanced Audio Codec Low Complexity
Codec ID : mp4a-40-2
Duration : 1 min 48 s
Source duration : 1 min 48 s
Bit rate mode : Variable
Bit rate : 128 kb/s
Maximum bit rate : 192 kb/s
Channel(s) : 2 channels
Channel layout : L R
Sampling rate : 48.0 kHz
Frame rate : 46.875 FPS (1024 SPF)
Compression mode : Lossy
Stream size : 1.64 MiB (0%)
Source stream size : 1.64 MiB (0%)
Language : English
Encoded date : UTC 2019-11-15 16:28:37

Daises : Xiaomi Yi M1 with TAMRON 1:3.8 1:4/210 80-210mm CF TELE MACRO 103A adapted to M4/3 4k




Daises & Flowers Larissa Greece

  • Camera : Xiaomi Yi M1 mirrorless Sony IMX269
  • Lens : TAMRON 1:3.8 1:4/210 80-210mm CF TELE MACRO BBAR MC 103A ADAPTALL Ø58 @ f/3.8 @ 210mm
  • Mode : A ISO 200 EV 0,0
  • Video Stabilization OFF Video 3840x2160 @ 30fps

  1. Xiaomi Yi M1 103A TAMRON 80-210mm
  2. TAMRON F/3.8 F/4@210mm 80-210mm 103A
  3. ADAPTALL adapted FD adapted MFT
  4. Yi M1 ADAPTALL adapted video test

Complete name : DCIM\103YICAM\PB150531.MP4
Format : MPEG-4
Format profile : Base Media / Version 2
Codec ID : mp42 (mp42/avc1)
File size : 1.25 GiB
Duration : 2 min 21 s
Overall bit rate mode : Variable
Overall bit rate : 76.0 Mb/s
Encoded date : UTC 2019-11-15 16:33:37
Tagged date : UTC 2019-11-15 16:33:37

Video
ID : 1
Format : AVC
Format/Info : Advanced Video Codec
Format profile : High@L5.1
Format settings : 1 Ref Frames
Format settings, CABAC : No
Format settings, Reference frames : 1 frame
Format settings, GOP : M=1, N=15
Codec ID : avc1
Codec ID/Info : Advanced Video Coding
Duration : 2 min 21 s
Bit rate : 75.9 Mb/s
Width : 3 840 pixels
Height : 2 160 pixels
Display aspect ratio : 16:9
Frame rate mode : Constant
Frame rate : 29.970 (30000/1001) FPS
Color space : YUV
Chroma subsampling : 4:2:0
Bit depth : 8 bits
Scan type : Progressive
Bits/(Pixel*Frame) : 0.305
Stream size : 1.25 GiB (100%)
Language : English
Encoded date : UTC 2019-11-15 16:33:37
Tagged date : UTC 2019-11-15 16:33:37
Color range : Full
Color primaries : BT.601 NTSC
Transfer characteristics : BT.709
Matrix coefficients : BT.601
Menus : 3
Codec configuration box : avcC

Audio
ID : 2
Format : AAC LC
Format/Info : Advanced Audio Codec Low Complexity
Codec ID : mp4a-40-2
Duration : 2 min 21 s
Source duration : 2 min 21 s
Bit rate mode : Variable
Bit rate : 128 kb/s
Maximum bit rate : 192 kb/s
Channel(s) : 2 channels
Channel layout : L R
Sampling rate : 48.0 kHz
Frame rate : 46.875 FPS (1024 SPF)
Compression mode : Lossy
Stream size : 2.14 MiB (0%)
Source stream size : 2.14 MiB (0%)
Language : English
Encoded date : UTC 2019-11-15 16:33:37

Old railings with design : Xiaomi Yi M1 with smc PENTAX-M 50mm f/2 Ø49 PK adapted to M4/3 4k




Old railings with design in a Cloudy Day Larissa Greece
Camera : Xiaomi Yi M1 mirrorless Sony IMX269
Lens : smc PENTAX-M f/2 50mm  Ø49 M42 @ f/2 @ f/2
Mode : A ISO 200 EV 0,0
Video Stabilization OFF Video 3840x2160 @ 30fps
PK adapted MFT
Yi M1 PK adapted video test
PK adapted M4/3

Complete name : XIAOMI\YI M1\VIDEO\PB110465.MP4
Format : MPEG-4
Format profile : Base Media / Version 2
Codec ID : mp42 (mp42/avc1)
File size : 690 MiB
Duration : 1 min 16 s
Overall bit rate mode : Variable
Overall bit rate : 76.1 Mb/s
Encoded date : UTC 2019-11-11 16:01:43
Tagged date : UTC 2019-11-11 16:01:43

Video
ID : 1
Format : AVC
Format/Info : Advanced Video Codec
Format profile : High@L5.1
Format settings : 1 Ref Frames
Format settings, CABAC : No
Format settings, Reference frames : 1 frame
Format settings, GOP : M=1, N=15
Codec ID : avc1
Codec ID/Info : Advanced Video Coding
Duration : 1 min 16 s
Bit rate : 75.9 Mb/s
Width : 3 840 pixels
Height : 2 160 pixels
Display aspect ratio : 16:9
Frame rate mode : Constant
Frame rate : 29.970 (30000/1001) FPS
Color space : YUV
Chroma subsampling : 4:2:0
Bit depth : 8 bits
Scan type : Progressive
Bits/(Pixel*Frame) : 0.305
Stream size : 689 MiB (100%)
Language : English
Encoded date : UTC 2019-11-11 16:01:43
Tagged date : UTC 2019-11-11 16:01:43
Color range : Full
Color primaries : BT.601 NTSC
Transfer characteristics : BT.709
Matrix coefficients : BT.601
Menus : 3
Codec configuration box : avcC

Audio
ID : 2
Format : AAC LC
Format/Info : Advanced Audio Codec Low Complexity
Codec ID : mp4a-40-2
Duration : 1 min 16 s
Source duration : 1 min 16 s
Bit rate mode : Variable
Bit rate : 128 kb/s
Maximum bit rate : 192 kb/s
Channel(s) : 2 channels
Channel layout : L R
Sampling rate : 48.0 kHz
Frame rate : 46.875 FPS (1024 SPF)
Compression mode : Lossy
Stream size : 1.15 MiB (0%)
Source stream size : 1.16 MiB (0%)
Language : English
Encoded date : UTC 2019-11-11 16:01:43

Daisies : Xiaomi Yi M1 with smc PENTAX-M f/2 50mm Ø49 PK adapted to M4/3 4k




Daisies Cloudy Day Larissa Greece
Camera : Xiaomi Yi M1 mirrorless Sony IMX269
Lens : smc PENTAX-M f/2 50mm  Ø49 M42 @ f/2 @ f/2
Mode : A ISO 200 EV 0,0
Video Stabilization OFF Video 3840x2160 @ 30fps
PK adapted MFT
Yi M1 PK adapted video test
PK adapted M4/3

Complete name : XIAOMI\YI M1\VIDEO\PB110464.MP4
Format : MPEG-4
Format profile : Base Media / Version 2
Codec ID : mp42 (mp42/avc1)
File size : 690 MiB
Duration : 1 min 16 s
Overall bit rate mode : Variable
Overall bit rate : 76.1 Mb/s
Encoded date : UTC 2019-11-11 15:59:30
Tagged date : UTC 2019-11-11 15:59:30

Video
ID : 1
Format : AVC
Format/Info : Advanced Video Codec
Format profile : High@L5.1
Format settings : 1 Ref Frames
Format settings, CABAC : No
Format settings, Reference frames : 1 frame
Format settings, GOP : M=1, N=15
Codec ID : avc1
Codec ID/Info : Advanced Video Coding
Duration : 1 min 16 s
Bit rate : 76.0 Mb/s
Width : 3 840 pixels
Height : 2 160 pixels
Display aspect ratio : 16:9
Frame rate mode : Constant
Frame rate : 29.970 (30000/1001) FPS
Color space : YUV
Chroma subsampling : 4:2:0
Bit depth : 8 bits
Scan type : Progressive
Bits/(Pixel*Frame) : 0.306
Stream size : 689 MiB (100%)
Language : English
Encoded date : UTC 2019-11-11 15:59:30
Tagged date : UTC 2019-11-11 15:59:30
Color range : Full
Color primaries : BT.601 NTSC
Transfer characteristics : BT.709
Matrix coefficients : BT.601
Menus : 3
Codec configuration box : avcC

Audio
ID : 2
Format : AAC LC
Format/Info : Advanced Audio Codec Low Complexity
Codec ID : mp4a-40-2
Duration : 1 min 16 s
Source duration : 1 min 16 s
Bit rate mode : Variable
Bit rate : 128 kb/s
Maximum bit rate : 192 kb/s
Channel(s) : 2 channels
Channel layout : L R
Sampling rate : 48.0 kHz
Frame rate : 46.875 FPS (1024 SPF)
Compression mode : Lossy
Stream size : 1.15 MiB (0%)
Source stream size : 1.16 MiB (0%)
Language : English
Encoded date : UTC 2019-11-11 15:59:30

Pink Rose : Xiaomi Yi M1 with smc PENTAX-M 1:2 50mm Ø49 PK adapted to M4/3 4k





Pink Rose Cloudy Sky Larissa Greece
Camera : Xiaomi Yi M1 mirrorless Sony IMX269
Lens : smc PENTAX-M f/2 50mm  Ø49 M42 @ f/2 @ f/2
Mode : A ISO 200 EV 0,0
Video Stabilization OFF Video 3840x2160 @ 30fps
PK adapted MFT
Yi M1 PK adapted video test
PK adapted M4/3

Complete name : E:\PHOTO\XIAOMI\YI M1\PB110456.MP4
Format : MPEG-4
Format profile : Base Media / Version 2
Codec ID : mp42 (mp42/avc1)
File size : 717 MiB
Duration : 1 min 19 s
Overall bit rate mode : Variable
Overall bit rate : 76.0 Mb/s
Encoded date : UTC 2019-11-11 15:54:05
Tagged date : UTC 2019-11-11 15:54:05

Video
ID : 1
Format : AVC
Format/Info : Advanced Video Codec
Format profile : High@L5.1
Format settings : 1 Ref Frames
Format settings, CABAC : No
Format settings, Reference frames : 1 frame
Format settings, GOP : M=1, N=15
Codec ID : avc1
Codec ID/Info : Advanced Video Coding
Duration : 1 min 19 s
Bit rate : 75.9 Mb/s
Width : 3 840 pixels
Height : 2 160 pixels
Display aspect ratio : 16:9
Frame rate mode : Constant
Frame rate : 29.970 (30000/1001) FPS
Color space : YUV
Chroma subsampling : 4:2:0
Bit depth : 8 bits
Scan type : Progressive
Bits/(Pixel*Frame) : 0.305
Stream size : 716 MiB (100%)
Language : English
Encoded date : UTC 2019-11-11 15:54:05
Tagged date : UTC 2019-11-11 15:54:05
Color range : Full
Color primaries : BT.601 NTSC
Transfer characteristics : BT.709
Matrix coefficients : BT.601
Menus : 3
Codec configuration box : avcC

Audio
ID : 2
Format : AAC LC
Format/Info : Advanced Audio Codec Low Complexity
Codec ID : mp4a-40-2
Duration : 1 min 19 s
Source duration : 1 min 19 s
Bit rate mode : Variable
Bit rate : 128 kb/s
Maximum bit rate : 192 kb/s
Channel(s) : 2 channels
Channel layout : L R
Sampling rate : 48.0 kHz
Frame rate : 46.875 FPS (1024 SPF)
Compression mode : Lossy
Stream size : 1.20 MiB (0%)
Source stream size : 1.20 MiB (0%)
Language : English
Encoded date : UTC 2019-11-11 15:54:05

Half Moon and Clouds : Xiaomi Yi M1 with Helios-44-2 2/58 M42 adapted to M4/3 4k




Half Moon and Clouds Larissa Greece
Camera : Xiaomi Yi M1 mirrorless Sony IMX269
Lens : Helios-44-2 58mm f/2 Ø52 M42 @ f/2
Mode : A ISO 200 EV 0,0
Video Stabilization OFF Video 3840x2160 @ 30fps
M42 adapted MFT
Yi M1 M42 adapted video test
M42 adapted M4/3
Yi M1 M42 video test

Complete name :XIAOMI\YI M1\VIDEO\PB060184.MP4
Format : MPEG-4
Format profile : Base Media / Version 2
Codec ID : mp42 (mp42/avc1)
File size : 599 MiB
Duration : 1 min 6 s
Overall bit rate mode : Variable
Overall bit rate : 76.0 Mb/s
Encoded date : UTC 2019-11-06 17:02:09
Tagged date : UTC 2019-11-06 17:02:09

Video
ID : 1
Format : AVC
Format/Info : Advanced Video Codec
Format profile : High@L5.1
Format settings : 1 Ref Frames
Format settings, CABAC : No
Format settings, Reference frames : 1 frame
Format settings, GOP : M=1, N=15
Codec ID : avc1
Codec ID/Info : Advanced Video Coding
Duration : 1 min 6 s
Bit rate : 75.9 Mb/s
Width : 3 840 pixels
Height : 2 160 pixels
Display aspect ratio : 16:9
Frame rate mode : Constant
Frame rate : 29.970 (30000/1001) FPS
Color space : YUV
Chroma subsampling : 4:2:0
Bit depth : 8 bits
Scan type : Progressive
Bits/(Pixel*Frame) : 0.305
Stream size : 598 MiB (100%)
Language : English
Encoded date : UTC 2019-11-06 17:02:09
Tagged date : UTC 2019-11-06 17:02:09
Color range : Full
Color primaries : BT.601 NTSC
Transfer characteristics : BT.709
Matrix coefficients : BT.601
Menus : 3
Codec configuration box : avcC

Audio
ID : 2
Format : AAC LC
Format/Info : Advanced Audio Codec Low Complexity
Codec ID : mp4a-40-2
Duration : 1 min 6 s
Source duration : 1 min 6 s
Bit rate mode : Variable
Bit rate : 128 kb/s
Maximum bit rate : 192 kb/s
Channel(s) : 2 channels
Channel layout : L R
Sampling rate : 48.0 kHz
Frame rate : 46.875 FPS (1024 SPF)
Compression mode : Lossy
Stream size : 1.00 MiB (0%)
Source stream size : 1.00 MiB (0%)
Language : English
Encoded date : UTC 2019-11-06 17:02:09

Half Moon : Xiaomi Yi M1 with PARAGON f/8 500mm Ø72 T2 adapted to M4/3 4k



Half Moon Blue Sky Larissa Greece
Camera : Xiaomi Yi M1 mirrorless Sony IMX269
Lens : PARAGON f/8 500mm Ø72 T2 @ f/11
Mode : A ISO 200 EV 0,0
Video Stabilization OFF Video 3840x2160 @ 30fps
T2 adapted MFT
Yi M1 T2 adapted video test
Xiaomi Yi M1 PARAGON

Complete name : XIAOMI\YI M1\PB060185.MP4
Format : MPEG-4
Format profile : Base Media / Version 2
Codec ID : mp42 (mp42/avc1)
File size : 1.86 GiB
Duration : 3 min 31 s
Overall bit rate mode : Variable
Overall bit rate : 75.7 Mb/s
Encoded date : UTC 2019-11-06 17:10:50
Tagged date : UTC 2019-11-06 17:10:50

Video
ID : 1
Format : AVC
Format/Info : Advanced Video Codec
Format profile : High@L5.1
Format settings : 1 Ref Frames
Format settings, CABAC : No
Format settings, Reference frames : 1 frame
Format settings, GOP : M=1, N=15
Codec ID : avc1
Codec ID/Info : Advanced Video Coding
Duration : 3 min 31 s
Bit rate : 75.6 Mb/s
Width : 3 840 pixels
Height : 2 160 pixels
Display aspect ratio : 16:9
Frame rate mode : Constant
Frame rate : 29.970 (30000/1001) FPS
Color space : YUV
Chroma subsampling : 4:2:0
Bit depth : 8 bits
Scan type : Progressive
Bits/(Pixel*Frame) : 0.304
Stream size : 1.86 GiB (100%)
Language : English
Encoded date : UTC 2019-11-06 17:10:50
Tagged date : UTC 2019-11-06 17:10:50
Color range : Full
Color primaries : BT.601 NTSC
Transfer characteristics : BT.709
Matrix coefficients : BT.601
Menus : 3
Codec configuration box : avcC

Audio
ID : 2
Format : AAC LC
Format/Info : Advanced Audio Codec Low Complexity
Codec ID : mp4a-40-2
Duration : 3 min 31 s
Source duration : 3 min 31 s
Bit rate mode : Variable
Bit rate : 128 kb/s
Maximum bit rate : 192 kb/s
Channel(s) : 2 channels
Channel layout : L R
Sampling rate : 48.0 kHz
Frame rate : 46.875 FPS (1024 SPF)
Compression mode : Lossy
Stream size : 3.21 MiB (0%)
Source stream size : 3.21 MiB (0%)
Language : English
Encoded date : UTC 2019-11-06 17:10:50



Clouds : Xiaomi Yi M1 with Helios-44-2 2/58 M42 adapted to M4/3 4k




Clouds  Blue Sky Larissa Greece
Camera : Xiaomi Yi M1 mirrorless Sony IMX269
Lens : Helios-44-2 58mm f/2 Ø52 M42 @ f/2
Mode : S shutter 50 ISO 800 EV 0,0
Video Stabilization OFF Video 3840x2160 @ 30fps
M42 adapted MFT
Yi M1 M42 adapted video test
M42 adapted M4/3

Complete name : H:\PHOTO\XIAOMI\YI M1\PB060198.MP4
Format : MPEG-4
Format profile : Base Media / Version 2
Codec ID : mp42 (mp42/avc1)
File size : 608 MiB
Duration : 1 min 7 s
Overall bit rate mode : Variable
Overall bit rate : 76.1 Mb/s
Encoded date : UTC 2019-11-06 17:39:46
Tagged date : UTC 2019-11-06 17:39:46

Video
ID : 1
Format : AVC
Format/Info : Advanced Video Codec
Format profile : High@L5.1
Format settings : 1 Ref Frames
Format settings, CABAC : No
Format settings, Reference frames : 1 frame
Format settings, GOP : M=1, N=15
Codec ID : avc1
Codec ID/Info : Advanced Video Coding
Duration : 1 min 7 s
Bit rate : 75.9 Mb/s
Width : 3 840 pixels
Height : 2 160 pixels
Display aspect ratio : 16:9
Frame rate mode : Constant
Frame rate : 29.970 (30000/1001) FPS
Color space : YUV
Chroma subsampling : 4:2:0
Bit depth : 8 bits
Scan type : Progressive
Bits/(Pixel*Frame) : 0.305
Stream size : 607 MiB (100%)
Language : English
Encoded date : UTC 2019-11-06 17:39:46
Tagged date : UTC 2019-11-06 17:39:46
Color range : Full
Color primaries : BT.601 NTSC
Transfer characteristics : BT.709
Matrix coefficients : BT.601
Menus : 3
Codec configuration box : avcC

Audio
ID : 2
Format : AAC LC
Format/Info : Advanced Audio Codec Low Complexity
Codec ID : mp4a-40-2
Duration : 1 min 7 s
Source duration : 1 min 7 s
Bit rate mode : Variable
Bit rate : 128 kb/s
Maximum bit rate : 192 kb/s
Channel(s) : 2 channels
Channel layout : L R
Sampling rate : 48.0 kHz
Frame rate : 46.875 FPS (1024 SPF)
Compression mode : Lossy
Stream size : 1.02 MiB (0%)
Source stream size : 1.02 MiB (0%)
Language : English
Encoded date : UTC 2019-11-06 17:39:46

In the park Bench Trees : Xiaomi Yi M1 with Helios-44M-4 58mm f/2 M42 adapted to M4/3 4k




Bench Trees Plants in the park Larissa Greece
Camera : Xiaomi Yi M1 mirrorless Sony IMX269
Lens : Helios-44M-4 58mm f/2 M42 @ f/2
Mode : A ISO 200 EV 0,0
Video Stabilization ON Video 3840x2160 @ 30fps
M42 adapted MFT
Yi M1 M42 adapted video test
M42 adapted M4/3

Complete name : YI M1\VIDEO\PB050117.MP4
Format : MPEG-4
Format profile : Base Media / Version 2
Codec ID : mp42 (mp42/avc1)
File size : 1.07 GiB
Duration : 2 min 0 s
Overall bit rate mode : Variable
Overall bit rate : 76.2 Mb/s
Encoded date : UTC 2019-11-05 14:10:14
Tagged date : UTC 2019-11-05 14:10:14

Video
ID : 1
Format : AVC
Format/Info : Advanced Video Codec
Format profile : High@L5.1
Format settings : 1 Ref Frames
Format settings, CABAC : No
Format settings, Reference frames : 1 frame
Format settings, GOP : M=1, N=15
Codec ID : avc1
Codec ID/Info : Advanced Video Coding
Duration : 2 min 0 s
Bit rate : 76.1 Mb/s
Width : 3 840 pixels
Height : 2 160 pixels
Display aspect ratio : 16:9
Frame rate mode : Constant
Frame rate : 29.970 (30000/1001) FPS
Color space : YUV
Chroma subsampling : 4:2:0
Bit depth : 8 bits
Scan type : Progressive
Bits/(Pixel*Frame) : 0.306
Stream size : 1.06 GiB (100%)
Language : English
Encoded date : UTC 2019-11-05 14:10:14
Tagged date : UTC 2019-11-05 14:10:14
Color range : Full
Color primaries : BT.601 NTSC
Transfer characteristics : BT.709
Matrix coefficients : BT.601
Menus : 3
Codec configuration box : avcC

Audio
ID : 2
Format : AAC LC
Format/Info : Advanced Audio Codec Low Complexity
Codec ID : mp4a-40-2
Duration : 2 min 0 s
Source duration : 2 min 0 s
Bit rate mode : Variable
Bit rate : 128 kb/s
Maximum bit rate : 192 kb/s
Channel(s) : 2 channels
Channel layout : L R
Sampling rate : 48.0 kHz
Frame rate : 46.875 FPS (1024 SPF)
Compression mode : Lossy
Stream size : 1.82 MiB (0%)
Source stream size : 1.82 MiB (0%)
Language : English
Encoded date : UTC 2019-11-05 14:10:14

In the park Trees Blue Sky : Xiaomi Yi M1 with Helios-44M-4 58mm f/2 M42 adapted to M4/3 4k




Blue Sky, Trees in the park Larissa Greece
Camera : Xiaomi Yi M1 mirrorless Sony IMX269
Lens : Helios-44M-4 58mm f/2 M42 @ f/2
Mode : A ISO 200 EV 0,0
Video Stabilization ON Video 3840x2160 @ 30fps
M42 adapted MFT
Yi M1 M42 adapted video test
M42 adapted M4/3

Complete name : YI M1\VIDEO\PB050121.MP4
Format : MPEG-4
Format profile : Base Media / Version 2
Codec ID : mp42 (mp42/avc1)
File size : 923 MiB
Duration : 1 min 40 s
Overall bit rate mode : Variable
Overall bit rate : 77.3 Mb/s
Encoded date : UTC 2019-11-05 14:17:56
Tagged date : UTC 2019-11-05 14:17:56

Video
ID : 1
Format : AVC
Format/Info : Advanced Video Codec
Format profile : High@L5.1
Format settings : 1 Ref Frames
Format settings, CABAC : No
Format settings, Reference frames : 1 frame
Format settings, GOP : M=1, N=15
Codec ID : avc1
Codec ID/Info : Advanced Video Coding
Duration : 1 min 40 s
Bit rate : 77.2 Mb/s
Width : 3 840 pixels
Height : 2 160 pixels
Display aspect ratio : 16:9
Frame rate mode : Constant
Frame rate : 29.970 (30000/1001) FPS
Color space : YUV
Chroma subsampling : 4:2:0
Bit depth : 8 bits
Scan type : Progressive
Bits/(Pixel*Frame) : 0.311
Stream size : 921 MiB (100%)
Language : English
Encoded date : UTC 2019-11-05 14:17:56
Tagged date : UTC 2019-11-05 14:17:56
Color range : Full
Color primaries : BT.601 NTSC
Transfer characteristics : BT.709
Matrix coefficients : BT.601
Menus : 3
Codec configuration box : avcC

Audio
ID : 2
Format : AAC LC
Format/Info : Advanced Audio Codec Low Complexity
Codec ID : mp4a-40-2
Duration : 1 min 40 s
Source duration : 1 min 40 s
Bit rate mode : Variable
Bit rate : 128 kb/s
Maximum bit rate : 192 kb/s
Channel(s) : 2 channels
Channel layout : L R
Sampling rate : 48.0 kHz
Frame rate : 46.875 FPS (1024 SPF)
Compression mode : Lossy
Stream size : 1.52 MiB (0%)
Source stream size : 1.52 MiB (0%)
Language : English
Encoded date : UTC 2019-11-05 14:17:56

In the park Tree Sun flares: Xiaomi Yi M1 with Helios-44M-4 58mm f/2 M42 adapted to M4/3 4k




Tree Sun flares in the park Larissa Greece
Camera : Xiaomi Yi M1 mirrorless Sony IMX269
Lens : Helios-44M-4 58mm f/2 M42 @ f/2
Mode : A ISO 200 EV 0,0
Video Stabilization ON Video 3840x2160 @ 30fps
M42 adapted MFT
Yi M1 M42 adapted video test
M42 adapted M4/3

Complete name : YI M1\VIDEO\PB050119.MP4
Format : MPEG-4
Format profile : Base Media / Version 2
Codec ID : mp42 (mp42/avc1)
File size : 898 MiB
Duration : 1 min 39 s
Overall bit rate mode : Variable
Overall bit rate : 76.0 Mb/s
Encoded date : UTC 2019-11-05 14:14:15
Tagged date : UTC 2019-11-05 14:14:15

Video
ID : 1
Format : AVC
Format/Info : Advanced Video Codec
Format profile : High@L5.1
Format settings : 1 Ref Frames
Format settings, CABAC : No
Format settings, Reference frames : 1 frame
Format settings, GOP : M=1, N=15
Codec ID : avc1
Codec ID/Info : Advanced Video Coding
Duration : 1 min 39 s
Bit rate : 75.9 Mb/s
Width : 3 840 pixels
Height : 2 160 pixels
Display aspect ratio : 16:9
Frame rate mode : Constant
Frame rate : 29.970 (30000/1001) FPS
Color space : YUV
Chroma subsampling : 4:2:0
Bit depth : 8 bits
Scan type : Progressive
Bits/(Pixel*Frame) : 0.305
Stream size : 897 MiB (100%)
Language : English
Encoded date : UTC 2019-11-05 14:14:15
Tagged date : UTC 2019-11-05 14:14:15
Color range : Full
Color primaries : BT.601 NTSC
Transfer characteristics : BT.709
Matrix coefficients : BT.601
Menus : 3
Codec configuration box : avcC

Audio
ID : 2
Format : AAC LC
Format/Info : Advanced Audio Codec Low Complexity
Codec ID : mp4a-40-2
Duration : 1 min 39 s
Source duration : 1 min 39 s
Bit rate mode : Variable
Bit rate : 128 kb/s
Maximum bit rate : 192 kb/s
Channel(s) : 2 channels
Channel layout : L R
Sampling rate : 48.0 kHz
Frame rate : 46.875 FPS (1024 SPF)
Compression mode : Lossy
Stream size : 1.50 MiB (0%)
Source stream size : 1.50 MiB (0%)
Language : English
Encoded date : UTC 2019-11-05 14:14:15

In the park Βench : Xiaomi Yi M1 with Helios-44M-4 58mm f/2 M42 adapted to M4/3 4k




Βench in the park Larissa Greece
Camera : Xiaomi Yi M1 mirrorless Sony IMX269
Lens : Helios-44M-4 58mm f/2 M42 @ f/2
Mode : A ISO 200 EV 0,0
Video Stabilization ON Video 3840x2160 @ 30fps
M42 adapted MFT
Yi M1 M42 adapted video test
M42 adapted M4/3

Complete name : YI M1\VIDEO\PB050120.MP4
Format : MPEG-4
Format profile : Base Media / Version 2
Codec ID : mp42 (mp42/avc1)
File size : 800 MiB
Duration : 1 min 28 s
Overall bit rate mode : Variable
Overall bit rate : 76.2 Mb/s
Encoded date : UTC 2019-11-05 14:16:11
Tagged date : UTC 2019-11-05 14:16:11

Video
ID : 1
Format : AVC
Format/Info : Advanced Video Codec
Format profile : High@L5.1
Format settings : 1 Ref Frames
Format settings, CABAC : No
Format settings, Reference frames : 1 frame
Format settings, GOP : M=1, N=15
Codec ID : avc1
Codec ID/Info : Advanced Video Coding
Duration : 1 min 28 s
Bit rate : 76.0 Mb/s
Width : 3 840 pixels
Height : 2 160 pixels
Display aspect ratio : 16:9
Frame rate mode : Constant
Frame rate : 29.970 (30000/1001) FPS
Color space : YUV
Chroma subsampling : 4:2:0
Bit depth : 8 bits
Scan type : Progressive
Bits/(Pixel*Frame) : 0.306
Stream size : 798 MiB (100%)
Language : English
Encoded date : UTC 2019-11-05 14:16:11
Tagged date : UTC 2019-11-05 14:16:11
Color range : Full
Color primaries : BT.601 NTSC
Transfer characteristics : BT.709
Matrix coefficients : BT.601
Menus : 3
Codec configuration box : avcC

Audio
ID : 2
Format : AAC LC
Format/Info : Advanced Audio Codec Low Complexity
Codec ID : mp4a-40-2
Duration : 1 min 28 s
Source duration : 1 min 28 s
Bit rate mode : Variable
Bit rate : 128 kb/s
Maximum bit rate : 192 kb/s
Channel(s) : 2 channels
Channel layout : L R
Sampling rate : 48.0 kHz
Frame rate : 46.875 FPS (1024 SPF)
Compression mode : Lossy
Stream size : 1.34 MiB (0%)
Source stream size : 1.34 MiB (0%)
Language : English
Encoded date : UTC 2019-11-05 14:16:11

In the park Swings : Xiaomi Yi M1 with Helios-44M-4 58mm f/2 M42 adapted to M4/3 4k




Swings in the park Larissa Greece
Camera : Xiaomi Yi M1 mirrorless Sony IMX269
Lens : Helios-44M-4 58mm f/2 M42 @ f/2
Mode : A ISO 200 EV 0,0
Video Stabilization ON Video 3840x2160 @ 30fps
M42 adapted MFT
Yi M1 M42 adapted video test
M42 adapted M4/3

Complete name : YI M1\VIDEO\PB050118.MP4
Format : MPEG-4
Format profile : Base Media / Version 2
Codec ID : mp42 (mp42/avc1)
File size : 635 MiB
Duration : 1 min 10 s
Overall bit rate mode : Variable
Overall bit rate : 76.1 Mb/s
Encoded date : UTC 2019-11-05 14:12:43
Tagged date : UTC 2019-11-05 14:12:43

Video
ID : 1
Format : AVC
Format/Info : Advanced Video Codec
Format profile : High@L5.1
Format settings : 1 Ref Frames
Format settings, CABAC : No
Format settings, Reference frames : 1 frame
Format settings, GOP : M=1, N=15
Codec ID : avc1
Codec ID/Info : Advanced Video Coding
Duration : 1 min 10 s
Bit rate : 75.9 Mb/s
Width : 3 840 pixels
Height : 2 160 pixels
Display aspect ratio : 16:9
Frame rate mode : Constant
Frame rate : 29.970 (30000/1001) FPS
Color space : YUV
Chroma subsampling : 4:2:0
Bit depth : 8 bits
Scan type : Progressive
Bits/(Pixel*Frame) : 0.305
Stream size : 634 MiB (100%)
Language : English
Encoded date : UTC 2019-11-05 14:12:43
Tagged date : UTC 2019-11-05 14:12:43
Color range : Full
Color primaries : BT.601 NTSC
Transfer characteristics : BT.709
Matrix coefficients : BT.601
Menus : 3
Codec configuration box : avcC

Audio
ID : 2
Format : AAC LC
Format/Info : Advanced Audio Codec Low Complexity
Codec ID : mp4a-40-2
Duration : 1 min 10 s
Source duration : 1 min 10 s
Bit rate mode : Variable
Bit rate : 128 kb/s
Maximum bit rate : 192 kb/s
Channel(s) : 2 channels
Channel layout : L R
Sampling rate : 48.0 kHz
Frame rate : 46.875 FPS (1024 SPF)
Compression mode : Lossy
Stream size : 1.06 MiB (0%)
Source stream size : 1.06 MiB (0%)
Language : English
Encoded date : UTC 2019-11-05 14:12:43

In the park Plant Tree : Xiaomi Yi M1 with Helios-44M-4 58mm f/2 M42 adapted to M4/3 4k




Plant Tree in the park Larissa Greece
Camera : Xiaomi Yi M1 mirrorless Sony IMX269
Lens : Helios-44M-4 58mm f/2 M42 @ f/2
Mode : A ISO 200 EV 0,0
Video Stabilization ON Video 3840x2160 @ 30fps
M42 adapted MFT
Yi M1 M42 adapted video test
M42 adapted M4/3

Complete name : H:\PHOTO\XIAOMI\YI M1\VIDEO\PB050116.MP4
Format : MPEG-4
Format profile : Base Media / Version 2
Codec ID : mp42 (mp42/avc1)
File size : 899 MiB
Duration : 1 min 39 s
Overall bit rate mode : Variable
Overall bit rate : 76.1 Mb/s
Encoded date : UTC 2019-11-05 14:08:18
Tagged date : UTC 2019-11-05 14:08:18

Video
ID : 1
Format : AVC
Format/Info : Advanced Video Codec
Format profile : High@L5.1
Format settings : 1 Ref Frames
Format settings, CABAC : No
Format settings, Reference frames : 1 frame
Format settings, GOP : M=1, N=15
Codec ID : avc1
Codec ID/Info : Advanced Video Coding
Duration : 1 min 39 s
Bit rate : 75.9 Mb/s
Width : 3 840 pixels
Height : 2 160 pixels
Display aspect ratio : 16:9
Frame rate mode : Constant
Frame rate : 29.970 (30000/1001) FPS
Color space : YUV
Chroma subsampling : 4:2:0
Bit depth : 8 bits
Scan type : Progressive
Bits/(Pixel*Frame) : 0.305
Stream size : 897 MiB (100%)
Language : English
Encoded date : UTC 2019-11-05 14:08:18
Tagged date : UTC 2019-11-05 14:08:18
Color range : Full
Color primaries : BT.601 NTSC
Transfer characteristics : BT.709
Matrix coefficients : BT.601
Menus : 3
Codec configuration box : avcC

Audio
ID : 2
Format : AAC LC
Format/Info : Advanced Audio Codec Low Complexity
Codec ID : mp4a-40-2
Duration : 1 min 39 s
Source duration : 1 min 39 s
Bit rate mode : Variable
Bit rate : 128 kb/s
Maximum bit rate : 192 kb/s
Channel(s) : 2 channels
Channel layout : L R
Sampling rate : 48.0 kHz
Frame rate : 46.875 FPS (1024 SPF)
Compression mode : Lossy
Stream size : 1.50 MiB (0%)
Source stream size : 1.50 MiB (0%)
Language : English
Encoded date : UTC 2019-11-05 14:08:18

In the park Cat : Xiaomi Yi M1 with Helios-44M-4 58mm f/2 M42 adapted to M4/3 4k




Cat in the park Larissa Greece
Camera : Xiaomi Yi M1 mirrorless Sony IMX269
Lens : Helios-44M-4 58mm f/2 M42 @ f/2
Mode : A ISO 200 EV 0,0
Video Stabilization ON Video 3840x2160 @ 30fps
M42 adapted MFT
Yi M1 M42 adapted video test
M42 adapted M4/3

Complete name : YI M1\VIDEO\PB050115.MP4
Format : MPEG-4
Format profile : Base Media / Version 2
Codec ID : mp42 (mp42/avc1)
File size : 645 MiB
Duration : 1 min 11 s
Overall bit rate mode : Variable
Overall bit rate : 76.2 Mb/s
Encoded date : UTC 2019-11-05 14:06:52
Tagged date : UTC 2019-11-05 14:06:52

Video
ID : 1
Format : AVC
Format/Info : Advanced Video Codec
Format profile : High@L5.1
Format settings : 1 Ref Frames
Format settings, CABAC : No
Format settings, Reference frames : 1 frame
Format settings, GOP : M=1, N=15
Codec ID : avc1
Codec ID/Info : Advanced Video Coding
Duration : 1 min 11 s
Bit rate : 76.0 Mb/s
Width : 3 840 pixels
Height : 2 160 pixels
Display aspect ratio : 16:9
Frame rate mode : Constant
Frame rate : 29.970 (30000/1001) FPS
Color space : YUV
Chroma subsampling : 4:2:0
Bit depth : 8 bits
Scan type : Progressive
Bits/(Pixel*Frame) : 0.306
Stream size : 644 MiB (100%)
Language : English
Encoded date : UTC 2019-11-05 14:06:52
Tagged date : UTC 2019-11-05 14:06:52
Color range : Full
Color primaries : BT.601 NTSC
Transfer characteristics : BT.709
Matrix coefficients : BT.601
Menus : 3
Codec configuration box : avcC

Audio
ID : 2
Format : AAC LC
Format/Info : Advanced Audio Codec Low Complexity
Codec ID : mp4a-40-2
Duration : 1 min 11 s
Source duration : 1 min 11 s
Bit rate mode : Variable
Bit rate : 128 kb/s
Maximum bit rate : 192 kb/s
Channel(s) : 2 channels
Channel layout : L R
Sampling rate : 48.0 kHz
Frame rate : 46.875 FPS (1024 SPF)
Compression mode : Lossy
Stream size : 1.08 MiB (0%)
Source stream size : 1.08 MiB (0%)
Language : English
Encoded date : UTC 2019-11-05 14:06:52

Genova città deserta Seconda parte rimaniamo a casa Μένουμε Σπίτι και εμείς

rimaniamo a casa Seconda parte Genova città deserta #StayHome Γένοβα δεύτερο μέρος Μένουμε Σπίτι και εμείς 2nd Part desert Genoa Geno...