Showing posts with label 2.7k. Show all posts
Showing posts with label 2.7k. Show all posts

Gopro hero 4 silver edition 1920 x 1440 48fps 4:3 format video test #2 45 Mb/s HWBD1 CHDHY-401


Gopro hero 4 silver edition 1920 x 1440 48fps 4:3 format video test #2 45 Mb/s HWBD1 CHDHY-401



Gopro hero 4 silver edition HWBD1 CHDHY-401
 48fps 1920 x 1440 4:3 format video test #1 45.2 Mb/s
οδός Ηπείρου Λάρισα 
4ο Γυμνάσιο 1ο Λύκειο

Don’t forget to click the bell to turn on post notifications!

Nikolaos Instagram: https://www.instagram.com/sakellarisnikolaos/
Twitter: https://twitter.com/SakellarisNiko
Facebook: https://www.facebook.com/nikolaos.sakellaris/
Blog: https://video-photo-blog.blogspot.com/

Complete name : GOPRO\HERO4 Silver\Video\GOPR0549.MP4 
Format : MPEG-4 
Format profile : Base Media / Version 1 
Codec ID : mp41 (mp41) 
File size : 150 MiB 
Duration : 27 s 840 ms 
Overall bit rate mode : Variable 
Overall bit rate : 45.1 Mb/s 
AMBA : x 

Video 
ID : 1 
Format : AVC 
Format/Info : Advanced Video Codec 
Format profile : High@L5 
Format settings : CABAC / 1 Ref Frames 
Format settings, CABAC : Yes 
Format settings, RefFrames : 1 frame 
Format settings, GOP : M=1, N=24 
Codec ID : avc1 
Codec ID/Info : Advanced Video Coding 
Duration : 27 s 819 ms 
Bit rate mode : Variable 
Bit rate : 45.0 Mb/s 
Width : 1 920 pixels 
Height : 1 440 pixels 
Display aspect ratio : 4:3 
Frame rate mode : Constant 
Frame rate : 47.952 (48000/1001) FPS 
Color space : YUV 
Chroma subsampling : 4:2:0 
Bit depth : 8 bits 
Scan type : Progressive 
Bits/(Pixel*Frame) : 0.339 
Stream size : 149 MiB (100%) 
Title : GoPro AVC 
Language : English 
Color range : Full 
Color primaries : BT.709 
Transfer characteristics : BT.709 
Matrix coefficients : BT.709 
Codec configuration box : avcC 

Audio 
ID : 2 
Format : AAC LC 
Format/Info : Advanced Audio Codec Low Complexity 
Codec ID : mp4a-40-2 
Duration : 27 s 840 ms 
Bit rate mode : Constant 
Bit rate : 128 kb/s 
Channel(s) : 2 channels 
Channel layout : L R 
Sampling rate : 48.0 kHz 
Frame rate : 46.875 FPS (1024 SPF) 
Compression mode : Lossy 
Stream size : 435 KiB (0%) 
Title : GoPro AAC 
Language : English 

Other 
Type : meta 
mdhd_Duration : 27819 
Bit rate mode : VBR





Gopro hero 4 silver edition,CHDHY-401,48fps 1920 x 1440,
4:3 format,video test #1,45.2 Mb/s,Gopro hero 4 silver edition CHDHY-401,
48fps 1920 x 1440 4:3 format video test,
οδός Ηπείρου Λάρισα,οδός Ηπείρου 59-55 Λάρισα,HWBD1 CHDHY-401



Gopro hero 4 silver edition 1920 x 1440 48fps 4:3 format video test #1 45.2 Mb/s HWBD1 CHDHY-401


Gopro hero 4 silver edition 1920 x 1440 48fps 4:3 format video test #1 45.2 Mb/s HWBD1 CHDHY-401



Gopro hero 4 silver edition HWBD1 CHDHY-401
 48fps 1920 x 1440 4:3 format video test #1 45.2 Mb/s
οδός Ηπείρου 59-55 Λάρισα 

Don’t forget to click the bell to turn on post notifications!

Nikolaos Instagram: https://www.instagram.com/sakellarisnikolaos/
Twitter: https://twitter.com/SakellarisNiko
Facebook: https://www.facebook.com/nikolaos.sakellaris/
Blog: https://video-photo-blog.blogspot.com/

Complete name : GOPRO\HERO4 Silver\Video\GOPR0548.MP4 
Format : MPEG-4 
Format profile : Base Media / Version 1 
Codec ID : mp41 (mp41) 
File size : 111 MiB 
Duration : 20 s 587 ms 
Overall bit rate mode : Variable 
Overall bit rate : 45.2 Mb/s 
AMBA : x 

Video 
ID : 1 
Format : AVC 
Format/Info : Advanced Video Codec 
Format profile : High@L5 
Format settings : CABAC / 1 Ref Frames 
Format settings, CABAC : Yes 
Format settings, RefFrames : 1 frame 
Format settings, GOP : M=1, N=24 
Codec ID : avc1 
Codec ID/Info : Advanced Video Coding 
Duration : 20 s 583 ms 
Bit rate mode : Variable 
Bit rate : 45.0 Mb/s 
Width : 1 920 pixels 
Height : 1 440 pixels 
Display aspect ratio : 4:3 
Frame rate mode : Constant 
Frame rate : 47.952 (48000/1001) FPS 
Color space : YUV 
Chroma subsampling : 4:2:0 
Bit depth : 8 bits 
Scan type : Progressive 
Bits/(Pixel*Frame) : 0.339 
Stream size : 111 MiB (100%) 
Title : GoPro AVC 
Language : English 
Color range : Full 
Color primaries : BT.709 
Transfer characteristics : BT.709 
Matrix coefficients : BT.709 
Codec configuration box : avcC 

Audio 
ID : 2 
Format : AAC LC 
Format/Info : Advanced Audio Codec Low Complexity 
Codec ID : mp4a-40-2 
Duration : 20 s 587 ms 
Bit rate mode : Constant 
Bit rate : 128 kb/s 
Channel(s) : 2 channels 
Channel layout : L R 
Sampling rate : 48.0 kHz 
Frame rate : 46.875 FPS (1024 SPF) 
Compression mode : Lossy 
Stream size : 322 KiB (0%) 
Title : GoPro AAC 
Language : English 

Other 
Type : meta 
mdhd_Duration : 20583 
Bit rate mode : VBR





Gopro hero 4 silver edition,CHDHY-401,48fps 1920 x 1440,4:3 format,video test #1,
45.2 Mb/s,Gopro hero 4 silver edition CHDHY-401,48fps 1920 x 1440 4:3 format video test,
οδός Ηπείρου Λάρισα,οδός Ηπείρου 59-55 Λάρισα,HWBD1 CHDHY-401



2019 Christmas tree 🎄 Central square Larissa. Gear 360 sm-c200 1440 30p front camera stereo



2019 Christmas tree 🎄 Central.square Larissa Gear 360 sm-c200 2016 1440 30p Complete name : SAM_102_0156.mp4 Format : MPEG-4 Format profile : Base Media / Version 2 Codec ID : mp42 (isom/mp42) File size : 905 MiB Duration : 2 min 5 s Overall bit rate mode : Variable Overall bit rate : 60.4 Mb/s Encoded date : UTC 2019-12-21 23:23:58 xyz : +39.6372+022.4150/ Video ID : 1 Format : AVC Format/Info : Advanced Video Codec Format profile : Baseline@L5 Format settings : 1 Ref Frames Format settings, CABAC : No Format settings, Reference frames : 1 frame Format settings, GOP : M=1, N=30 Codec ID : avc1 Codec ID/Info : Advanced Video Coding Duration : 2 min 5 s Bit rate : 60.2 Mb/s Width : 2 560 pixels Height : 1 440 pixels Display aspect ratio : 16:9 Frame rate mode : Constant Frame rate : 29.970 (30000/1001) FPS Color space : YUV Chroma subsampling : 4:2:0 Bit depth : 8 bits Scan type : Progressive Bits/(Pixel*Frame) : 0.545 Stream size : 903 MiB (100%) Title : VideoHandle Language : English Codec configuration box : avcC Audio ID : 2 Format : AAC LC Format/Info : Advanced Audio Codec Low Complexity Codec ID : mp4a-40-2 Duration : 2 min 5 s Source duration : 2 min 5 s Source_Duration_FirstFrame : 149 ms Bit rate mode : Variable Bit rate : 192 kb/s Channel(s) : 2 channels Channel layout : L R Sampling rate : 48.0 kHz Frame rate : 46.875 FPS (1024 SPF) Compression mode : Lossy Stream size : 2.85 MiB (0%) Source stream size : 2.85 MiB (0%) Title : SoundHandle Language : English mdhd_Duration : 125483

Λάρισα 6/12/2019 : Λιτανεία του Αγίου Νικολάου - Ηπείρου & Παπαναστασίου





6/12/2019 
Λιτανεία του Αγίου Νικολάου
Ηπείρου & Παπαναστασίου Λάρισα 

Complete name :DCIM\112_ZOOM\ZOOM0002.MOV 
Format : MPEG-4 
Format profile : QuickTime 
Codec ID : qt 0000.00 (qt ) 
File size : 620 MiB 
Duration : 2 min 57 s 
Overall bit rate mode : Constant 
Overall bit rate : 29.2 Mb/s 





Video 
ID : 1 
Format : AVC 
Format/Info : Advanced Video Codec 
Format profile : Main@L5 
Format settings : CABAC / 1 Ref Frames 
Format settings, CABAC : Yes 
Format settings, Reference frames : 1 frame 
Format settings, GOP : M=1, N=8 
Codec ID : avc1 
Codec ID/Info : Advanced Video Coding 
Duration : 2 min 57 s 
Bit rate mode : Constant 
Bit rate : 23.4 Mb/s 
Width : 2 304 pixels 
Clean aperture width : 2 304 pixels 
Height : 1 296 pixels 
Clean aperture height : 1 296 pixels 
Display aspect ratio : 16:9 
Frame rate mode : Constant 
Frame rate : 25.000 FPS 
Color space : YUV 
Chroma subsampling : 4:2:0 
Bit depth : 8 bits 
Scan type : Progressive 
Bits/(Pixel*Frame) : 0.313 
Stream size : 509 MiB (82%) 
Title : Ambarella AVC / Ambarella AVC 
Language : English 



Color range : Full 
Codec configuration box : avcC 



Audio 
ID : 2 
Format : PCM 
Format settings : Little / Signed 
Codec ID : lpcm 
Duration : 2 min 57 s 
Bit rate mode : Constant 
Bit rate : 4 608 kb/s 
Channel(s) : 2 channels 
Channel layout : L R 
Sampling rate : 96.0 kHz 
Bit depth : 24 bits 
Stream size : 97.7 MiB (16%) 
Title : Ambarella AAC / Ambarella AAC 
Language : English

Popular Posts