Showing posts with label SIGMA DL ZOOM 75-300mm f/4--5.6 55m. Show all posts
Showing posts with label SIGMA DL ZOOM 75-300mm f/4--5.6 55m. Show all posts

Half Moon : SIGMA DL ZOOM 75-300mm f/4--5.6 55mm + Olympus OM-D E-M10 FHD 30FPS



Half Moon FHD
Camera Olympus OM-D E-M10
 M Mode 200 iso
Lens SIGMA DL ZOOM 75-300mm  f/4--5.6  55m  @ f/8
 OLYMPUS OM to EOS to M4/3
with Crop Sensorc ois On

Complete name : DCIM\100OLYMP\PA060003.MOV
Format : MPEG-4
Format profile : QuickTime
Codec ID : qt 2011.07 (qt )
File size : 303 MiB
Duration : 3 min 53 s
Overall bit rate : 10.9 Mb/s
Encoded date : UTC 2019-10-06 20:05:47
Tagged date : UTC 2019-10-06 20:05:47
TAGS : 8"R

Video
ID : 1
Format : AVC
Format/Info : Advanced Video Codec
Format profile : High@L4.1
Format settings : 2 Ref Frames
Format settings, CABAC : No
Format settings, RefFrames : 2 frames
Format settings, GOP : M=3, N=8
Codec ID : avc1
Codec ID/Info : Advanced Video Coding
Duration : 3 min 53 s
Bit rate : 9 295 kb/s
Width : 1 920 pixels
Height : 1 080 pixels
Display aspect ratio : 16:9
Frame rate mode : Constant
Frame rate : 29.970 (30000/1001) FPS
Color space : YUV
Chroma subsampling : 4:2:0
Bit depth : 8 bits
Scan type : Progressive
Bits/(Pixel*Frame) : 0.150
Stream size : 259 MiB (86%)
Language : Japanese
Encoded date : UTC 2019-10-06 20:05:47
Tagged date : UTC 2019-10-06 20:05:47
Color range : Full
Color primaries : BT.601 NTSC
Transfer characteristics : BT.601
Matrix coefficients : BT.601
Menus : 0
Codec configuration box : avcC

Audio
ID : 2
Format : PCM
Format settings : Little / Signed
Codec ID : sowt
Duration : 3 min 53 s
Source duration : 3 min 53 s
Bit rate mode : Constant
Bit rate : 1 536 kb/s
Channel(s) : 2 channels
Channel layout : L R
Sampling rate : 48.0 kHz
Bit depth : 16 bits
Stream size : 42.8 MiB (14%)
Source stream size : 42.8 MiB (14%)
Language : Japanese
Encoded date : UTC 2019-10-06 20:05:47

   

Genova città deserta Seconda parte rimaniamo a casa Μένουμε Σπίτι και εμείς

rimaniamo a casa Seconda parte Genova città deserta #StayHome Γένοβα δεύτερο μέρος Μένουμε Σπίτι και εμείς 2nd Part desert Genoa Geno...