Showing posts with label Pentax. Show all posts
Showing posts with label Pentax. Show all posts

Moon2 : Pentax Q Video test with MTO MC 3M-5CA 500mm F8 Ø72 M42 to Pq Night




2nd Moon with MTO MC 3M-5CA 500mm F8 Camera : Pentax Q 12.4 Mp 1/2.3-inch CMOS Crop factor 5.62 Lens : MTO MC 3M-5CA 500mm F8 Ø72 M42 @ f/8 2810‬mm equivalent 35mm Mode : M Shutter 1/50 ISO 125 EV 0,0 Video Stabilization OFF Video 1920x1080 @ 30fps Don’t forget to click the bell to turn on post notifications! Nikolaos Instagram: https://www.instagram.com/sakellarisnikolaos/ Twitter: https://twitter.com/SakellarisNiko Facebook: https://www.facebook.com/nikolaos.sakellaris/ Blog: https://video-photo-blog.blogspot.com/ Complete name : DCIM\133_1402\IMGP8702.MOV Format : MPEG-4 Format profile : QuickTime Codec ID : qt 2007.09 (qt /####) File size : 220 MiB Duration : 3 min 1 s Overall bit rate mode : Variable Overall bit rate : 10.2 Mb/s thmb : AX Video ID : 1 Format : AVC Format/Info : Advanced Video Codec Format profile : Main@L4 Format settings : CABAC / 2 Ref Frames Format settings, CABAC : Yes Format settings, RefFrames : 2 frames Codec ID : avc1 Codec ID/Info : Advanced Video Coding Duration : 3 min 1 s Source duration : 3 min 1 s Bit rate mode : Variable Bit rate : 8 613 kb/s Maximum bit rate : 20.0 Mb/s Width : 1 920 pixels Height : 1 080 pixels Display aspect ratio : 16:9 Frame rate mode : Constant Frame rate : 29.970 (30000/1001) FPS Color space : YUV Chroma subsampling : 4:2:0 Bit depth : 8 bits Scan type : Progressive Bits/(Pixel*Frame) : 0.139 Stream size : 186 MiB (85%) Source stream size : 186 MiB (85%) Language : English mdhd_Duration : 181567 Codec configuration box : avcC Audio ID : 2 Format : PCM Format settings : Little / Signed Codec ID : sowt Duration : 3 min 1 s Bit rate mode : Constant Bit rate : 1 536 kb/s Channel(s) : 2 channels Channel layout : L R Sampling rate : 48.0 kHz Bit depth : 16 bits Stream size : 33.2 MiB (15%) Language : English mdhd_Duration : 181567

Moon : Pentax Q Video test with Vivitar-55MM 1:2.8 MC MACRO Ø62 FD to Pq Night



Moon with Vivitar-55MM 1:2.8 MC MACRO Camera : Pentax Q 12.4 Mp 1/2.3-inch CMOS Crop factor 5.62 Lens : Vivitar-55MM 1:2.8 MC MACRO Ø62 FD @ f/2.8 310mm equivalent 35mm Mode : M Shutter 1/250 ISO 125 EV 0,0 Video Stabilization OFF Video 1920x1080 @ 30fps Don’t forget to click the bell to turn on post notifications! Nikolaos Instagram: https://www.instagram.com/sakellarisnikolaos/ Twitter: https://twitter.com/SakellarisNiko Facebook: https://www.facebook.com/nikolaos.sakellaris/ Blog: https://video-photo-blog.blogspot.com/ Complete name : DCIM\133_1402\IMGP8700.MOV Format : MPEG-4 Format profile : QuickTime Codec ID : qt 2007.09 (qt /####) File size : 82.8 MiB Duration : 2 min 42 s Overall bit rate mode : Variable Overall bit rate : 4 273 kb/s thmb : AX Video ID : 1 Format : AVC Format/Info : Advanced Video Codec Format profile : Main@L4 Format settings : CABAC / 2 Ref Frames Format settings, CABAC : Yes Format settings, RefFrames : 2 frames Codec ID : avc1 Codec ID/Info : Advanced Video Coding Duration : 2 min 42 s Source duration : 2 min 42 s Bit rate mode : Variable Bit rate : 2 727 kb/s Maximum bit rate : 20.0 Mb/s Width : 1 920 pixels Height : 1 080 pixels Display aspect ratio : 16:9 Frame rate mode : Constant Frame rate : 29.970 (30000/1001) FPS Color space : YUV Chroma subsampling : 4:2:0 Bit depth : 8 bits Scan type : Progressive Bits/(Pixel*Frame) : 0.044 Stream size : 52.8 MiB (64%) Source stream size : 52.8 MiB (64%) Language : English mdhd_Duration : 162560 Codec configuration box : avcC Audio ID : 2 Format : PCM Format settings : Little / Signed Codec ID : sowt Duration : 2 min 42 s Bit rate mode : Constant Bit rate : 1 536 kb/s Channel(s) : 2 channels Channel layout : L R Sampling rate : 48.0 kHz Bit depth : 16 bits Stream size : 29.8 MiB (36%) Language : English

B. Sunset Clouds : Pentax Q video test with ARSAT H 50mm 1:2 Nikon AI adapted to Pq 1080 @ 30fps




Sunset Clouds Larissa Greece Camera : Pentax Q 12.4 Mp 1/2.3-inch CMOS Crop factor 5.62 Lens : ARSAT H 50mm f/2 Ø52 Nikon AI @ f/2 326mm equivalent 35mm Mode : M ISO 125 EV 0,0 Shutter 1/50 Video Stabilization OFF Video 1920x1080 @ 30fps Complete name : Desktop\IMGP8634.MOV Format : MPEG-4 Format profile : QuickTime Codec ID : qt 2007.09 (qt /####) File size : 154 MiB Duration : 1 min 31 s Overall bit rate mode : Variable Overall bit rate : 14.1 Mb/s thmb : AX Video ID : 1 Format : AVC Format/Info : Advanced Video Codec Format profile : Main@L4 Format settings : CABAC / 2 Ref Frames Format settings, CABAC : Yes Format settings, RefFrames : 2 frames Codec ID : avc1 Codec ID/Info : Advanced Video Coding Duration : 1 min 31 s Source duration : 1 min 31 s Bit rate mode : Variable Bit rate : 12.5 Mb/s Maximum bit rate : 20.0 Mb/s Width : 1 920 pixels Height : 1 080 pixels Display aspect ratio : 16:9 Frame rate mode : Constant Frame rate : 29.970 (30000/1001) FPS Color space : YUV Chroma subsampling : 4:2:0 Bit depth : 8 bits Scan type : Progressive Bits/(Pixel*Frame) : 0.202 Stream size : 137 MiB (89%) Source stream size : 137 MiB (89%) Language : English mdhd_Duration : 91647 Codec configuration box : avcC Audio ID : 2 Format : PCM Format settings : Little / Signed Codec ID : sowt Duration : 1 min 31 s Bit rate mode : Constant Bit rate : 1 536 kb/s Channel(s) : 2 channels Channel layout : L R Sampling rate : 48.0 kHz Bit depth : 16 bits Stream size : 16.8 MiB (11%) Language : English mdhd_Duration : 91647

Sunset : Pentax Q video test with Jupiter-37A 135mm f3.5 M42 adapted to Pq 1080 30fps 758mm @ 35mm





Hard to handle by hand / Sunset Larissa Greece Camera : Pentax Q 12.4 Mp 1/2.3-inch CMOS Crop factor 5.62 Lens : Jupiter-37A 135mm f3.5 Ø52 M42 @ f/8 758mm equivalent 35mm Mode : M ISO 125 EV 0,0 Shutter 1/30 Video Stabilization OFF Video 1920x1080 @ 30fps Complete name : DCIM\125_2312\IMGP8617.MOV Format : MPEG-4 Format profile : QuickTime Codec ID : qt 2007.09 File size : 186 MiB Duration : 1 min 51 s Overall bit rate mode : Variable Overall bit rate : 14.1 Mb/s thmb : AX Video ID : 1 Format : AVC Format/Info : Advanced Video Codec Format profile : Main@L4 Format settings : CABAC / 2 Ref Frames Format settings, CABAC : Yes Format settings, Reference frames : 2 frames Codec ID : avc1 Codec ID/Info : Advanced Video Coding Duration : 1 min 51 s Source duration : 1 min 51 s Bit rate mode : Variable Bit rate : 12.5 Mb/s Maximum bit rate : 20.0 Mb/s Width : 1 920 pixels Height : 1 080 pixels Display aspect ratio : 16:9 Frame rate mode : Constant Frame rate : 29.970 (30000/1001) FPS Color space : YUV Chroma subsampling : 4:2:0 Bit depth : 8 bits Scan type : Progressive Bits/(Pixel*Frame) : 0.201 Stream size : 166 MiB (89%) Source stream size : 166 MiB (89%) Language : English mdhd_Duration : 111103 Codec configuration box : avcC Audio ID : 2 Format : PCM Format settings : Little / Signed Codec ID : sowt Duration : 1 min 51 s Bit rate mode : Constant Bit rate : 1 536 kb/s Channel(s) : 2 channels Channel layout : L R Sampling rate : 48.0 kHz Bit depth : 16 bits Stream size : 20.3 MiB (11%) Language : English mdhd_Duration : 111103

Old railings with design : Xiaomi Yi M1 with smc PENTAX-M 50mm f/2 Ø49 PK adapted to M4/3 4k




Old railings with design in a Cloudy Day Larissa Greece
Camera : Xiaomi Yi M1 mirrorless Sony IMX269
Lens : smc PENTAX-M f/2 50mm  Ø49 M42 @ f/2 @ f/2
Mode : A ISO 200 EV 0,0
Video Stabilization OFF Video 3840x2160 @ 30fps
PK adapted MFT
Yi M1 PK adapted video test
PK adapted M4/3

Complete name : XIAOMI\YI M1\VIDEO\PB110465.MP4
Format : MPEG-4
Format profile : Base Media / Version 2
Codec ID : mp42 (mp42/avc1)
File size : 690 MiB
Duration : 1 min 16 s
Overall bit rate mode : Variable
Overall bit rate : 76.1 Mb/s
Encoded date : UTC 2019-11-11 16:01:43
Tagged date : UTC 2019-11-11 16:01:43

Video
ID : 1
Format : AVC
Format/Info : Advanced Video Codec
Format profile : High@L5.1
Format settings : 1 Ref Frames
Format settings, CABAC : No
Format settings, Reference frames : 1 frame
Format settings, GOP : M=1, N=15
Codec ID : avc1
Codec ID/Info : Advanced Video Coding
Duration : 1 min 16 s
Bit rate : 75.9 Mb/s
Width : 3 840 pixels
Height : 2 160 pixels
Display aspect ratio : 16:9
Frame rate mode : Constant
Frame rate : 29.970 (30000/1001) FPS
Color space : YUV
Chroma subsampling : 4:2:0
Bit depth : 8 bits
Scan type : Progressive
Bits/(Pixel*Frame) : 0.305
Stream size : 689 MiB (100%)
Language : English
Encoded date : UTC 2019-11-11 16:01:43
Tagged date : UTC 2019-11-11 16:01:43
Color range : Full
Color primaries : BT.601 NTSC
Transfer characteristics : BT.709
Matrix coefficients : BT.601
Menus : 3
Codec configuration box : avcC

Audio
ID : 2
Format : AAC LC
Format/Info : Advanced Audio Codec Low Complexity
Codec ID : mp4a-40-2
Duration : 1 min 16 s
Source duration : 1 min 16 s
Bit rate mode : Variable
Bit rate : 128 kb/s
Maximum bit rate : 192 kb/s
Channel(s) : 2 channels
Channel layout : L R
Sampling rate : 48.0 kHz
Frame rate : 46.875 FPS (1024 SPF)
Compression mode : Lossy
Stream size : 1.15 MiB (0%)
Source stream size : 1.16 MiB (0%)
Language : English
Encoded date : UTC 2019-11-11 16:01:43

Daisies : Xiaomi Yi M1 with smc PENTAX-M f/2 50mm Ø49 PK adapted to M4/3 4k




Daisies Cloudy Day Larissa Greece
Camera : Xiaomi Yi M1 mirrorless Sony IMX269
Lens : smc PENTAX-M f/2 50mm  Ø49 M42 @ f/2 @ f/2
Mode : A ISO 200 EV 0,0
Video Stabilization OFF Video 3840x2160 @ 30fps
PK adapted MFT
Yi M1 PK adapted video test
PK adapted M4/3

Complete name : XIAOMI\YI M1\VIDEO\PB110464.MP4
Format : MPEG-4
Format profile : Base Media / Version 2
Codec ID : mp42 (mp42/avc1)
File size : 690 MiB
Duration : 1 min 16 s
Overall bit rate mode : Variable
Overall bit rate : 76.1 Mb/s
Encoded date : UTC 2019-11-11 15:59:30
Tagged date : UTC 2019-11-11 15:59:30

Video
ID : 1
Format : AVC
Format/Info : Advanced Video Codec
Format profile : High@L5.1
Format settings : 1 Ref Frames
Format settings, CABAC : No
Format settings, Reference frames : 1 frame
Format settings, GOP : M=1, N=15
Codec ID : avc1
Codec ID/Info : Advanced Video Coding
Duration : 1 min 16 s
Bit rate : 76.0 Mb/s
Width : 3 840 pixels
Height : 2 160 pixels
Display aspect ratio : 16:9
Frame rate mode : Constant
Frame rate : 29.970 (30000/1001) FPS
Color space : YUV
Chroma subsampling : 4:2:0
Bit depth : 8 bits
Scan type : Progressive
Bits/(Pixel*Frame) : 0.306
Stream size : 689 MiB (100%)
Language : English
Encoded date : UTC 2019-11-11 15:59:30
Tagged date : UTC 2019-11-11 15:59:30
Color range : Full
Color primaries : BT.601 NTSC
Transfer characteristics : BT.709
Matrix coefficients : BT.601
Menus : 3
Codec configuration box : avcC

Audio
ID : 2
Format : AAC LC
Format/Info : Advanced Audio Codec Low Complexity
Codec ID : mp4a-40-2
Duration : 1 min 16 s
Source duration : 1 min 16 s
Bit rate mode : Variable
Bit rate : 128 kb/s
Maximum bit rate : 192 kb/s
Channel(s) : 2 channels
Channel layout : L R
Sampling rate : 48.0 kHz
Frame rate : 46.875 FPS (1024 SPF)
Compression mode : Lossy
Stream size : 1.15 MiB (0%)
Source stream size : 1.16 MiB (0%)
Language : English
Encoded date : UTC 2019-11-11 15:59:30

Pink Rose : Xiaomi Yi M1 with smc PENTAX-M 1:2 50mm Ø49 PK adapted to M4/3 4k





Pink Rose Cloudy Sky Larissa Greece
Camera : Xiaomi Yi M1 mirrorless Sony IMX269
Lens : smc PENTAX-M f/2 50mm  Ø49 M42 @ f/2 @ f/2
Mode : A ISO 200 EV 0,0
Video Stabilization OFF Video 3840x2160 @ 30fps
PK adapted MFT
Yi M1 PK adapted video test
PK adapted M4/3

Complete name : E:\PHOTO\XIAOMI\YI M1\PB110456.MP4
Format : MPEG-4
Format profile : Base Media / Version 2
Codec ID : mp42 (mp42/avc1)
File size : 717 MiB
Duration : 1 min 19 s
Overall bit rate mode : Variable
Overall bit rate : 76.0 Mb/s
Encoded date : UTC 2019-11-11 15:54:05
Tagged date : UTC 2019-11-11 15:54:05

Video
ID : 1
Format : AVC
Format/Info : Advanced Video Codec
Format profile : High@L5.1
Format settings : 1 Ref Frames
Format settings, CABAC : No
Format settings, Reference frames : 1 frame
Format settings, GOP : M=1, N=15
Codec ID : avc1
Codec ID/Info : Advanced Video Coding
Duration : 1 min 19 s
Bit rate : 75.9 Mb/s
Width : 3 840 pixels
Height : 2 160 pixels
Display aspect ratio : 16:9
Frame rate mode : Constant
Frame rate : 29.970 (30000/1001) FPS
Color space : YUV
Chroma subsampling : 4:2:0
Bit depth : 8 bits
Scan type : Progressive
Bits/(Pixel*Frame) : 0.305
Stream size : 716 MiB (100%)
Language : English
Encoded date : UTC 2019-11-11 15:54:05
Tagged date : UTC 2019-11-11 15:54:05
Color range : Full
Color primaries : BT.601 NTSC
Transfer characteristics : BT.709
Matrix coefficients : BT.601
Menus : 3
Codec configuration box : avcC

Audio
ID : 2
Format : AAC LC
Format/Info : Advanced Audio Codec Low Complexity
Codec ID : mp4a-40-2
Duration : 1 min 19 s
Source duration : 1 min 19 s
Bit rate mode : Variable
Bit rate : 128 kb/s
Maximum bit rate : 192 kb/s
Channel(s) : 2 channels
Channel layout : L R
Sampling rate : 48.0 kHz
Frame rate : 46.875 FPS (1024 SPF)
Compression mode : Lossy
Stream size : 1.20 MiB (0%)
Source stream size : 1.20 MiB (0%)
Language : English
Encoded date : UTC 2019-11-11 15:54:05

Pentax K-x firmware update v1.03




Pentax K-x Update firmware

Upgrade to firmware v1.03


Filmed with Sony HDR-CX410VE 1920 1080 50p 28Mbit

Insert new batteries

format a sd card and copy the firmware version pentax K-x 1.03

insert the sd card to the camera

hold the menu button and turn on the camera

in the menu select YES

firmware update 1/2 2/2
don't do anythhing to the camera and
when complete

turn off the camera

you have installed the last firmware

Genova città deserta Seconda parte rimaniamo a casa Μένουμε Σπίτι και εμείς

rimaniamo a casa Seconda parte Genova città deserta #StayHome Γένοβα δεύτερο μέρος Μένουμε Σπίτι και εμείς 2nd Part desert Genoa Geno...