Showing posts with label Canon FD to M4/3. Show all posts
Showing posts with label Canon FD to M4/3. Show all posts

Pinios river river Xiaomi Yi M1 with Vivitar-55MM 1:2.8 MC MACRO Ø62 FD adapted to M4/3



Pinios river Larissa Greece Camera : Xiaomi Yi M1 http://bit.ly/33QoqBP mirrorless Sony IMX269 Lens : Vivitar-55MM 1:2.8 MC MACRO Ø62 FD Mode : A ISO 200 EV 0,0 Video Stabilization OFF Video 3840x2160 @ 30fps Don’t forget to click the bell to turn on post notifications! Nikolaos Instagram: https://www.instagram.com/sakellarisnikolaos/ Twitter: https://twitter.com/SakellarisNiko Facebook: https://www.facebook.com/nikolaos.sakellaris/ Blog: https://video-photo-blog.blogspot.com/ FD adapted MFT Yi M1 FD adapted video test FD adapted M4/3 Complete name : F:\PHOTO\XIAOMI\YI M1\P2080104.MP4 Format : MPEG-4 Format profile : Base Media / Version 2 Codec ID : mp42 (mp42/avc1) File size : 925 MiB Duration : 1 min 41 s Overall bit rate mode : Variable Overall bit rate : 76.8 Mb/s Encoded date : UTC 2020-02-08 17:17:48 Video ID : 1 Format : AVC Format/Info : Advanced Video Codec Format profile : High@L5.1 Format settings : 1 Ref Frames Format settings, CABAC : No Format settings, Reference frames : 1 frame Format settings, GOP : M=1, N=15 Codec ID : avc1 Codec ID/Info : Advanced Video Coding Duration : 1 min 41 s Bit rate : 76.6 Mb/s Width : 3 840 pixels Height : 2 160 pixels Display aspect ratio : 16:9 Frame rate mode : Constant Frame rate : 29.970 (30000/1001) FPS Color space : YUV Chroma subsampling : 4:2:0 Bit depth : 8 bits Scan type : Progressive Bits/(Pixel*Frame) : 0.308 Stream size : 924 MiB (100%) Language : English Color range : Full Color primaries : BT.601 NTSC Transfer characteristics : BT.709 Matrix coefficients : BT.601 Menus : 3 Codec configuration box : avcC Audio ID : 2 Format : AAC LC Format/Info : Advanced Audio Codec Low Complexity Codec ID : mp4a-40-2 Duration : 1 min 41 s Source duration : 1 min 41 s Bit rate mode : Variable Bit rate : 128 kb/s Maximum bit rate : 192 kb/s Channel(s) : 2 channels Channel layout : L R Sampling rate : 48.0 kHz Frame rate : 46.875 FPS (1024 SPF) Compression mode : Lossy Stream size : 1.53 MiB (0%) Source stream size : 1.54 MiB (0%) Language : English

Sunset Birds : Xiaomi Yi M1 with Canon FL 50mm f/1.4 FD adapted to M4/3 UHD 4k test footage




Sunset Birds Larissa Greece Camera : Xiaomi Yi M1 http://bit.ly/33QoqBP mirrorless Sony IMX269 Lens : Canon FL 50mm f/1.4 @ f/1,7 http://bit.ly/2NVlFJP Mode : S 1/100 ISO 200 EV 0,0 Video Stabilization OFF Video 3840x2160 @ 30fps Don’t forget to click the bell to turn on post notifications! Nikolaos Instagram: https://www.instagram.com/sakellarisnikolaos/ Twitter: https://twitter.com/SakellarisNiko Facebook: https://www.facebook.com/nikolaos.sakellaris/ Blog: https://video-photo-blog.blogspot.com/ FD adapted MFT Yi M1 FD adapted video test footage FD adapted M4/3

Genova città deserta Seconda parte rimaniamo a casa Μένουμε Σπίτι και εμείς

rimaniamo a casa Seconda parte Genova città deserta #StayHome Γένοβα δεύτερο μέρος Μένουμε Σπίτι και εμείς 2nd Part desert Genoa Geno...