Showing posts with label 8 F=50mm. Show all posts
Showing posts with label 8 F=50mm. Show all posts

Cafe at Municipal Theater Fujfilm X-A1 with OLYMPUS OM-SYSTEM ZUIKO MC AUTO-S 1:1,8 F=50mm




Cafe at Municipal Theater Larissa
Camera : Fujfilm X-A1
Lens : OLYMPUS OM-SYSTEM ZUIKO MC AUTO-S 1:1.8 F=50mm @1.8
Fujfilm X-A1 adapted OM Olympus

Complete name : F:\PHOTO\FUJIFILM\X-A1\Video\DSCF0116.MOV
Format : MPEG-4
Format profile : QuickTime
Codec ID : qt 0000.00 (qt )
File size : 318 MiB
Duration : 1 min 11 s
Overall bit rate : 37.5 Mb/s
Movie_More : FUJIFILM DIGITAL CAMERA X-A1
Encoded date : UTC 2019-05-09 20:23:20
Tagged date : UTC 2019-05-09 20:23:20
Origin : Digital Camera


Video
ID : 1
Format : AVC
Format/Info : Advanced Video Codec
Format profile : High@L4.1
Format settings : 1 Ref Frames
Format settings, CABAC : No
Format settings, Reference frames : 1 frame
Format settings, GOP : M=1, N=15
Codec ID : avc1
Codec ID/Info : Advanced Video Coding
Duration : 1 min 11 s
Bit rate : 35.9 Mb/s
Width : 1 920 pixels
Height : 1 080 pixels
Display aspect ratio : 16:9
Frame rate mode : Constant
Frame rate : 29.970 (30000/1001) FPS
Color space : YUV
Chroma subsampling : 4:2:0
Bit depth : 8 bits
Scan type : Progressive
Bits/(Pixel*Frame) : 0.577
Stream size : 304 MiB (96%)
Language : English
Encoded date : UTC 2019-05-09 20:23:20
Tagged date : UTC 2019-05-09 20:23:20
Codec configuration box : avcC

Audio
ID : 2
Format : PCM
Format settings : Little / Signed
Codec ID : sowt
Duration : 1 min 11 s
Bit rate mode : Constant
Bit rate : 1 536 kb/s
Channel(s) : 2 channels
Channel layout : L R
Sampling rate : 48.0 kHz
Bit depth : 16 bits
Stream size : 6.51 MiB (2%)
Language : English
Encoded date : UTC 2019-05-09 20:23:20

Genova città deserta Seconda parte rimaniamo a casa Μένουμε Σπίτι και εμείς

rimaniamo a casa Seconda parte Genova città deserta #StayHome Γένοβα δεύτερο μέρος Μένουμε Σπίτι και εμείς 2nd Part desert Genoa Geno...