Sunset : Olympus OM-D E-M10 + Lumix H-FS1410 FHD




Sunset FHD
Camera Olympus OM-D E-M10 A Mode 200iso
Lens Panasonic Lumix H-FS1410 M4/3 14-140MM POWER O.I,S. OFF

Church of St. Achilles Larissa
Ιερός Ναός Αγίου Αχιλλείου Λάρισα


Complete name : DCIM\152OLYMP\P5110007.MOV
Format : MPEG-4
Format profile : QuickTime
Codec ID : qt 2011.07 (qt )
File size : 85.7 MiB
Duration : 41 s 41 ms
Overall bit rate : 17.5 Mb/s
Encoded date : UTC 2019-05-11 19:38:26
Tagged date : UTC 2019-05-11 19:38:26
TAGS : 8"R

Video
ID : 1
Format : AVC
Format/Info : Advanced Video Codec
Format profile : High@L4.1
Format settings : 2 Ref Frames
Format settings, CABAC : No
Format settings, Reference frames : 2 frames
Format settings, GOP : M=3, N=8
Codec ID : avc1
Codec ID/Info : Advanced Video Coding
Duration : 41 s 41 ms
Bit rate : 15.8 Mb/s
Width : 1 920 pixels
Height : 1 080 pixels
Display aspect ratio : 16:9
Frame rate mode : Constant
Frame rate : 29.970 (30000/1001) FPS
Color space : YUV
Chroma subsampling : 4:2:0
Bit depth : 8 bits
Scan type : Progressive
Bits/(Pixel*Frame) : 0.254
Stream size : 77.3 MiB (90%)
Language : Japanese
Encoded date : UTC 2019-05-11 19:38:26
Tagged date : UTC 2019-05-11 19:38:26
Color range : Full
Color primaries : BT.601 NTSC
Transfer characteristics : BT.601
Matrix coefficients : BT.601
Menus : 0
Codec configuration box : avcC

Audio
ID : 2
Format : PCM
Format settings : Little / Signed
Codec ID : sowt
Duration : 41 s 41 ms
Source duration : 41 s 80 ms
Bit rate mode : Constant
Bit rate : 1 536 kb/s
Channel(s) : 2 channels
Channel layout : L R
Sampling rate : 48.0 kHz
Bit depth : 16 bits
Stream size : 7.51 MiB (9%)
Source stream size : 7.52 MiB (9%)
Language : Japanese
Encoded date : UTC 2019-05-11 19:38:26

Sunset - Agia Anna Beach (Naxos) - 2017 FHD Olympus SH-21




Sunset
Agia Anna Beach
( Naxos Island ) - 2017
Greece

Clouds 2 : Panasonic Lumix DMC-GX80 4k UHD Canon FL 50mm f/1.4



Clouds
Panasonic Lumix DMC-GX80 4k UHD 25fps   94.1 Mb/s
Canon FL 50mm f/1.4 @f/1.4
Video Test 006

Complete name : DCIM\108_PANA\P1080667.MP4
Format : MPEG-4
Format profile : Base Media / Version 2
Codec ID : mp42 (mp42/avc1)
File size : 1.47 GiB
Duration : 2 min 14 s
Overall bit rate mode : Variable
Overall bit rate : 94.1 Mb/s
Encoded date : UTC 2019-05-06 15:36:26
Tagged date : UTC 2019-05-06 15:36:26
PANA : Ê

Video
ID : 1
Format : AVC
Format/Info : Advanced Video Codec
Format profile : High@L5.1
Format settings : CABAC / 2 Ref Frames
Format settings, CABAC : Yes
Format settings, Reference frames : 2 frames
Codec ID : avc1
Codec ID/Info : Advanced Video Coding
Duration : 2 min 14 s
Bit rate mode : Variable
Bit rate : 94.0 Mb/s
Maximum bit rate : 106 Mb/s
Width : 3 840 pixels
Height : 2 160 pixels
Display aspect ratio : 16:9
Frame rate mode : Constant
Frame rate : 25.000 FPS
Color space : YUV
Chroma subsampling : 4:2:0
Bit depth : 8 bits
Scan type : Progressive
Bits/(Pixel*Frame) : 0.453
Stream size : 1.47 GiB (100%)
Encoded date : UTC 2019-05-06 15:36:26
Tagged date : UTC 2019-05-06 15:36:26
Color range : Limited
Color primaries : BT.709
Transfer characteristics : BT.709
Matrix coefficients : BT.709
Codec configuration box : avcC

Audio
ID : 2
Format : AAC LC
Format/Info : Advanced Audio Codec Low Complexity
Codec ID : mp4a-40-2
Duration : 2 min 14 s
Source duration : 2 min 14 s
Bit rate mode : Constant
Bit rate : 128 kb/s
Channel(s) : 2 channels
Channel layout : L R
Sampling rate : 48.0 kHz
Frame rate : 46.875 FPS (1024 SPF)
Compression mode : Lossy
Stream size : 2.01 MiB (0%)
Source stream size : 2.01 MiB (0%)
Encoded date : UTC 2019-05-06 15:36:26

Clouds 1 : Panasonic Lumix DMC-GX80 4k UHD Canon FL 50mm f/1.4




Clouds
Panasonic Lumix DMC-GX80 4k UHD 25fps   93.8 Mb/s
Canon FL 50mm f/1.4 @f/1.4
Video Test 005

Complete name : DCIM\108_PANA\P1080666.MP4
Format : MPEG-4
Format profile : Base Media / Version 2
Codec ID : mp42 (mp42/avc1)
File size : 682 MiB
Duration : 1 min 0 s
Overall bit rate mode : Variable
Overall bit rate : 93.8 Mb/s
Encoded date : UTC 2019-05-06 15:34:42
Tagged date : UTC 2019-05-06 15:34:42
PANA : Ê

Video
ID : 1
Format : AVC
Format/Info : Advanced Video Codec
Format profile : High@L5.1
Format settings : CABAC / 2 Ref Frames
Format settings, CABAC : Yes
Format settings, Reference frames : 2 frames
Codec ID : avc1
Codec ID/Info : Advanced Video Coding
Duration : 1 min 0 s
Bit rate mode : Variable
Bit rate : 93.7 Mb/s
Maximum bit rate : 106 Mb/s
Width : 3 840 pixels
Height : 2 160 pixels
Display aspect ratio : 16:9
Frame rate mode : Constant
Frame rate : 25.000 FPS
Color space : YUV
Chroma subsampling : 4:2:0
Bit depth : 8 bits
Scan type : Progressive
Bits/(Pixel*Frame) : 0.452
Stream size : 681 MiB (100%)
Encoded date : UTC 2019-05-06 15:34:42
Tagged date : UTC 2019-05-06 15:34:42
Color range : Limited
Color primaries : BT.709
Transfer characteristics : BT.709
Matrix coefficients : BT.709
Codec configuration box : avcC

Audio
ID : 2
Format : AAC LC
Format/Info : Advanced Audio Codec Low Complexity
Codec ID : mp4a-40-2
Duration : 1 min 0 s
Source duration : 1 min 1 s
Bit rate mode : Constant
Bit rate : 128 kb/s
Channel(s) : 2 channels
Channel layout : L R
Sampling rate : 48.0 kHz
Frame rate : 46.875 FPS (1024 SPF)
Compression mode : Lossy
Stream size : 932 KiB (0%)
Source stream size : 933 KiB (0%)
Encoded date : UTC 2019-05-06 15:34:42

Flowers 4: Panasonic Lumix DMC-GX80 4k UHD Canon FL 50mm f/1.4




Flowers
Panasonic Lumix DMC-GX80 4k UHD 25fps   94.2 Mb/s
Canon FL 50mm f/1.4 @f/1.4
Video Test 004

Complete name : DCIM\108_PANA\P1080621.MP4
Format : MPEG-4
Format profile : Base Media / Version 2
Codec ID : mp42 (mp42/avc1)
File size : 687 MiB
Duration : 1 min 1 s
Overall bit rate mode : Variable
Overall bit rate : 93.7 Mb/s
Encoded date : UTC 2019-05-05 18:03:34
Tagged date : UTC 2019-05-05 18:03:34
PANA : Ê

Video
ID : 1
Format : AVC
Format/Info : Advanced Video Codec
Format profile : High@L5.1
Format settings : CABAC / 2 Ref Frames
Format settings, CABAC : Yes
Format settings, RefFrames : 2 frames
Codec ID : avc1
Codec ID/Info : Advanced Video Coding
Duration : 1 min 1 s
Bit rate mode : Variable
Bit rate : 93.6 Mb/s
Maximum bit rate : 106 Mb/s
Width : 3 840 pixels
Height : 2 160 pixels
Display aspect ratio : 16:9
Frame rate mode : Constant
Frame rate : 25.000 FPS
Color space : YUV
Chroma subsampling : 4:2:0
Bit depth : 8 bits
Scan type : Progressive
Bits/(Pixel*Frame) : 0.451
Stream size : 685 MiB (100%)
Encoded date : UTC 2019-05-05 18:03:34
Tagged date : UTC 2019-05-05 18:03:34
Color range : Limited
Color primaries : BT.709
Transfer characteristics : BT.709
Matrix coefficients : BT.709
Codec configuration box : avcC

Audio
ID : 2
Format : AAC LC
Format/Info : Advanced Audio Codec Low Complexity
Codec ID : mp4a-40-2
Duration : 1 min 1 s
Source duration : 1 min 1 s
Bit rate mode : Constant
Bit rate : 128 kb/s
Channel(s) : 2 channels
Channel layout : L R
Sampling rate : 48.0 kHz
Frame rate : 46.875 FPS (1024 SPF)
Compression mode : Lossy
Stream size : 939 KiB (0%)
Source stream size : 940 KiB (0%)
Encoded date : UTC 2019-05-05 18:03:34

Flowers 3: Panasonic Lumix DMC-GX80 4k UHD Jupiter-37A 135mm f3.5




Flowers
Panasonic Lumix DMC-GX80 4k UHD 25fps   94.2 Mb/s
Jupiter-37A 135mm f3.5
Video Test 003

Complete name : E:\DCIM\108_PANA\P1080337.MP4
Format : MPEG-4
Format profile : Base Media / Version 2
Codec ID : mp42 (mp42/avc1)
File size : 360 MiB
Duration : 32 s 160 ms
Overall bit rate mode : Variable
Overall bit rate : 93.9 Mb/s
Encoded date : UTC 2019-05-01 19:40:17

PANA : Ê

Video
ID : 1
Format : AVC
Format/Info : Advanced Video Codec
Format profile : High@L5.1
Format settings : CABAC / 2 Ref Frames
Format settings, CABAC : Yes
Format settings, Reference frames : 2 frames
Codec ID : avc1
Codec ID/Info : Advanced Video Coding
Duration : 32 s 160 ms
Bit rate mode : Variable
Bit rate : 93.7 Mb/s
Maximum bit rate : 106 Mb/s
Width : 3 840 pixels
Height : 2 160 pixels
Display aspect ratio : 16:9
Frame rate mode : Constant
Frame rate : 25.000 FPS
Color space : YUV
Chroma subsampling : 4:2:0
Bit depth : 8 bits
Scan type : Progressive
Bits/(Pixel*Frame) : 0.452
Stream size : 359 MiB (100%)
Encoded date : UTC 2019-05-01 19:40:17

Color range : Limited
Color primaries : BT.709
Transfer characteristics : BT.709
Matrix coefficients : BT.709
Codec configuration box : avcC

Audio
ID : 2
Format : AAC LC
Format/Info : Advanced Audio Codec Low Complexity
Codec ID : mp4a-40-2
Duration : 32 s 160 ms
Source duration : 32 s 213 ms
Bit rate mode : Constant
Bit rate : 128 kb/s
Channel(s) : 2 channels
Channel layout : L R
Sampling rate : 48.0 kHz
Frame rate : 46.875 FPS (1024 SPF)
Compression mode : Lossy
Stream size : 492 KiB (0%)
Source stream size : 492 KiB (0%)
Encoded date : UTC 2019-05-01 19:40:17

Flowers 2: Panasonic Lumix DMC-GX80 4k UHD Jupiter-37A 135mm f3.5




Flowers
Panasonic Lumix DMC-GX80 4k UHD 25fps   94.2 Mb/s
Jupiter-37A 135mm f3.5 at f4
Video Test 002

Complete name : E:\DCIM\108_PANA\P1080404.MP4
Format : MPEG-4
Format profile : Base Media / Version 2
Codec ID : mp42 (mp42/avc1)
File size : 354 MiB
Duration : 31 s 680 ms
Overall bit rate mode : Variable
Overall bit rate : 93.7 Mb/s
Encoded date : UTC 2019-05-02 10:56:14

PANA : Ê

Video
ID : 1
Format : AVC
Format/Info : Advanced Video Codec
Format profile : High@L5.1
Format settings : CABAC / 2 Ref Frames
Format settings, CABAC : Yes
Format settings, Reference frames : 2 frames
Codec ID : avc1
Codec ID/Info : Advanced Video Coding
Duration : 31 s 680 ms
Bit rate mode : Variable
Bit rate : 93.5 Mb/s
Maximum bit rate : 106 Mb/s
Width : 3 840 pixels
Height : 2 160 pixels
Display aspect ratio : 16:9
Frame rate mode : Constant
Frame rate : 25.000 FPS
Color space : YUV
Chroma subsampling : 4:2:0
Bit depth : 8 bits
Scan type : Progressive
Bits/(Pixel*Frame) : 0.451
Stream size : 353 MiB (100%)
Encoded date : UTC 2019-05-02 10:56:14

Color range : Limited
Color primaries : BT.709
Transfer characteristics : BT.709
Matrix coefficients : BT.709
Codec configuration box : avcC

Audio
ID : 2
Format : AAC LC
Format/Info : Advanced Audio Codec Low Complexity
Codec ID : mp4a-40-2
Duration : 31 s 680 ms
Source duration : 31 s 723 ms
Bit rate mode : Constant
Bit rate : 128 kb/s
Channel(s) : 2 channels
Channel layout : L R
Sampling rate : 48.0 kHz
Frame rate : 46.875 FPS (1024 SPF)
Compression mode : Lossy
Stream size : 484 KiB (0%)
Source stream size : 485 KiB (0%)
Encoded date : UTC 2019-05-02 10:56:14

Flowers 1: Panasonic Lumix DMC-GX80 4k UHD Jupiter-37A 135mm f3.5




Flowers
Panasonic Lumix DMC-GX80 4k UHD 25fps   94.2 Mb/s
Jupiter-37A 135mm f3.5 at f4
Video Test 001

Complete name : DCIM\108_PANA\P1080403.MP4
Format : MPEG-4
Format profile : Base Media / Version 2
Codec ID : mp42 (mp42/avc1)
File size : 361 MiB
Duration : 32 s 160 ms
Overall bit rate mode : Variable
Overall bit rate : 94.2 Mb/s
Encoded date : UTC 2019-05-02 10:54:49

PANA : Ê

Video
ID : 1
Format : AVC
Format/Info : Advanced Video Codec
Format profile : High@L5.1
Format settings : CABAC / 2 Ref Frames
Format settings, CABAC : Yes
Format settings, Reference frames : 2 frames
Codec ID : avc1
Codec ID/Info : Advanced Video Coding
Duration : 32 s 160 ms
Bit rate mode : Variable
Bit rate : 94.0 Mb/s
Maximum bit rate : 106 Mb/s
Width : 3 840 pixels
Height : 2 160 pixels
Display aspect ratio : 16:9
Frame rate mode : Constant
Frame rate : 25.000 FPS
Color space : YUV
Chroma subsampling : 4:2:0
Bit depth : 8 bits
Scan type : Progressive
Bits/(Pixel*Frame) : 0.453
Stream size : 360 MiB (100%)
Encoded date : UTC 2019-05-02 10:54:49

Color range : Limited
Color primaries : BT.709
Transfer characteristics : BT.709
Matrix coefficients : BT.709
Codec configuration box : avcC

Audio
ID : 2
Format : AAC LC
Format/Info : Advanced Audio Codec Low Complexity
Codec ID : mp4a-40-2
Duration : 32 s 160 ms
Source duration : 32 s 213 ms
Bit rate mode : Constant
Bit rate : 128 kb/s
Channel(s) : 2 channels
Channel layout : L R
Sampling rate : 48.0 kHz
Frame rate : 46.875 FPS (1024 SPF)
Compression mode : Lossy
Stream size : 492 KiB (0%)
Source stream size : 492 KiB (0%)
Encoded date : UTC 2019-05-02 10:54:49

Hand 40x Zoom - Dove Bird : JVC Everio GZ-HM200BE GZ-HM200BE #002 1080 25fps



Dove Bird
JVC Everio GZ-HM200BE
Hand 40x Zoom
video test #002 1080 25fps 24.0 Mb/s

Complete name : E:\PRIVATE\AVCHD\BDMV\STREAM\00013.MTS
Format : BDAV
Format/Info : Blu-ray Video
File size : 89.2 MiB
Duration : 31 s 614 ms
Overall bit rate mode : Variable
Overall bit rate : 23.7 Mb/s
Maximum Overall bit rate : 24.0 Mb/s
Recorded date : 2019-04-24 17:52:19+00:00
Writing application : JVC

Video
ID : 4113 (0x1011)
Menu ID : 1 (0x1)
Format : AVC
Format/Info : Advanced Video Codec
Format profile : High@L4
Format settings : 2 Ref Frames
Format settings, CABAC : No
Format settings, Reference frames : 2 frames
Format settings, GOP : M=2, N=12
Codec ID : 27
Duration : 31 s 640 ms
Bit rate mode : Variable
Bit rate : 22.6 Mb/s
Width : 1 920 pixels
Height : 1 080 pixels
Display aspect ratio : 16:9
Frame rate : 25.000 FPS
Color space : YUV
Chroma subsampling : 4:2:0
Bit depth : 8 bits
Scan type : Interlaced
Scan type, store method : Separated fields
Scan order : Top Field First
Bits/(Pixel*Frame) : 0.436
Stream size : 84.8 MiB (95%)

Audio
ID : 4352 (0x1100)
Menu ID : 1 (0x1)
Format : AC-3
Format/Info : Audio Coding 3
Commercial name : Dolby Digital
Codec ID : 129
Duration : 31 s 680 ms
Bit rate mode : Constant
Bit rate : 256 kb/s
Channel(s) : 2 channels
Channel layout : L R
Sampling rate : 48.0 kHz
Frame rate : 31.250 FPS (1536 SPF)
Bit depth : 16 bits
Compression mode : Lossy
Delay relative to video : -40 ms
Stream size : 990 KiB (1%)
Service kind : Complete Main

Text
ID : 4608 (0x1200)
Menu ID : 1 (0x1)
Format : PGS
Codec ID : 144
Duration : 31 s 175 ms
Delay relative to video : -40 ms

Poppy Flower : JVC Everio GZ-HM200BE video test #001 1080 25fps



Flowers JVC Everio GZ-HM200BE
video test #001 1080 25fps bit rate : 24.0 Mb/s

Complete name : AVCHD\BDMV\STREAM\00025.MTS
Format : BDAV
Format/Info : Blu-ray Video
File size : 86.4 MiB
Duration : 30 s 659 ms
Overall bit rate mode : Variable
Overall bit rate : 23.6 Mb/s
Maximum Overall bit rate : 24.0 Mb/s
Recorded date : 2019-04-30 16:09:30+00:00
Writing application : JVC

Video
ID : 4113 (0x1011)
Menu ID : 1 (0x1)
Format : AVC
Format/Info : Advanced Video Codec
Format profile : High@L4
Format settings : 2 Ref Frames
Format settings, CABAC : No
Format settings, Reference frames : 2 frames
Format settings, GOP : M=2, N=12
Codec ID : 27
Duration : 30 s 680 ms
Bit rate mode : Variable
Bit rate : 22.6 Mb/s
Width : 1 920 pixels
Height : 1 080 pixels
Display aspect ratio : 16:9
Frame rate : 25.000 FPS
Color space : YUV
Chroma subsampling : 4:2:0
Bit depth : 8 bits
Scan type : Interlaced
Scan type, store method : Separated fields
Scan order : Top Field First
Bits/(Pixel*Frame) : 0.436
Stream size : 82.1 MiB (95%)

Audio
ID : 4352 (0x1100)
Menu ID : 1 (0x1)
Format : AC-3
Format/Info : Audio Coding 3
Commercial name : Dolby Digital
Codec ID : 129
Duration : 30 s 720 ms
Bit rate mode : Constant
Bit rate : 256 kb/s
Channel(s) : 2 channels
Channel layout : L R
Sampling rate : 48.0 kHz
Frame rate : 31.250 FPS (1536 SPF)
Bit depth : 16 bits
Compression mode : Lossy
Delay relative to video : -40 ms
Stream size : 960 KiB (1%)
Service kind : Complete Main

Text
ID : 4608 (0x1200)
Menu ID : 1 (0x1)
Format : PGS
Codec ID : 144
Duration : 30 s 215 ms
Delay relative to video : -40 ms

Canon FD Adapter to Canon EOS body 1200d




NOT WORKING AT INFINITY IS 50 CM MAXIMUM

Adaptor NOT WORKING to Canon 1200d EOS body
* Infinity at 50cm with Canon FL 50mm f/1.4
glass is needed to focus to INFINITY

FD-EOS adattatore di montaggio non anello vetro per obiettivo Canon FD EOS EF

Full Moon 20 April 2019 : Panasonic Lumix DMC-GX80 4k UHD H-FS14140



Full Moon 20 April 2019
Camer : Panasonic Full Moon 20 April 2019
Camer : Panasonic Lumix DMC-GX80 UHD 4k
Lens : Panasonic Lumix H-FS14140
140mm + 4x digital zoom

Complete name : GX-80\VIDEO\P1070575.MP4
Format : MPEG-4
Format profile : Base Media / Version 2
Codec ID : mp42 (mp42/avc1)
File size : 104 MiB
Duration : 15 s 840 ms
Overall bit rate mode : Variable
Overall bit rate : 55.0 Mb/s
Encoded date : UTC 2019-04-20 01:19:21



Video
ID : 1
Format : AVC
Format/Info : Advanced Video Codec
Format profile : High@L5.1
Format settings : CABAC / 2 Ref Frames
Format settings, CABAC : Yes
Format settings, RefFrames : 2 frames
Codec ID : avc1
Codec ID/Info : Advanced Video Coding
Duration : 15 s 840 ms
Bit rate mode : Variable
Bit rate : 54.8 Mb/s
Maximum bit rate : 106 Mb/s
Width : 3 840 pixels
Height : 2 160 pixels
Display aspect ratio : 16:9
Frame rate mode : Constant
Frame rate : 25.000 FPS
Color space : YUV
Chroma subsampling : 4:2:0
Bit depth : 8 bits
Scan type : Progressive
Bits/(Pixel*Frame) : 0.264
Stream size : 103 MiB (100%)
Encoded date : UTC 2019-04-20 01:19:21
Tagged date : UTC 2019-04-20 01:19:21
Color range : Limited
Color primaries : BT.709
Transfer characteristics : BT.709
Matrix coefficients : BT.709
Codec configuration box : avcC

Audio
ID : 2
Format : AAC LC
Format/Info : Advanced Audio Codec Low Complexity
Codec ID : mp4a-40-2
Duration : 15 s 840 ms
Source duration : 15 s 893 ms
Bit rate mode : Constant
Bit rate : 128 kb/s
Channel(s) : 2 channels
Channel layout : L R
Sampling rate : 48.0 kHz
Frame rate : 46.875 FPS (1024 SPF)
Compression mode : Lossy
Stream size : 242 KiB (0%)
Source stream size : 242 KiB (0%)
Encoded date : UTC 2019-04-20 01:19:21 UHD 4k
Lens : Panasonic Lumix H-FS14140
140mm + 4x digital zoom

Complete name : GX-80\VIDEO\P1070575.MP4
Format : MPEG-4
Format profile : Base Media / Version 2
Codec ID : mp42 (mp42/avc1)
File size : 104 MiB
Duration : 15 s 840 ms
Overall bit rate mode : Variable
Overall bit rate : 55.0 Mb/s
Encoded date : UTC 2019-04-20 01:19:21



Video
ID : 1
Format : AVC
Format/Info : Advanced Video Codec
Format profile : High@L5.1
Format settings : CABAC / 2 Ref Frames
Format settings, CABAC : Yes
Format settings, RefFrames : 2 frames
Codec ID : avc1
Codec ID/Info : Advanced Video Coding
Duration : 15 s 840 ms
Bit rate mode : Variable
Bit rate : 54.8 Mb/s
Maximum bit rate : 106 Mb/s
Width : 3 840 pixels
Height : 2 160 pixels
Display aspect ratio : 16:9
Frame rate mode : Constant
Frame rate : 25.000 FPS
Color space : YUV
Chroma subsampling : 4:2:0
Bit depth : 8 bits
Scan type : Progressive
Bits/(Pixel*Frame) : 0.264
Stream size : 103 MiB (100%)
Encoded date : UTC 2019-04-20 01:19:21
Tagged date : UTC 2019-04-20 01:19:21
Color range : Limited
Color primaries : BT.709
Transfer characteristics : BT.709
Matrix coefficients : BT.709
Codec configuration box : avcC

Audio
ID : 2
Format : AAC LC
Format/Info : Advanced Audio Codec Low Complexity
Codec ID : mp4a-40-2
Duration : 15 s 840 ms
Source duration : 15 s 893 ms
Bit rate mode : Constant
Bit rate : 128 kb/s
Channel(s) : 2 channels
Channel layout : L R
Sampling rate : 48.0 kHz
Frame rate : 46.875 FPS (1024 SPF)
Compression mode : Lossy
Stream size : 242 KiB (0%)
Source stream size : 242 KiB (0%)
Encoded date : UTC 2019-04-20 01:19:21

Fast Motion 20x Timelapse : Canon Legria HF-R706 : Video Test #004 23.0 Mb/s 25fps



20x Fast Motion Timelapse
20 minutes as 1 minute
Canon Legria HF-R706
Video Test #004
25fps 23.0 Mb/s

Complete name : DCIM\111_0410\MVI_7992.MP4
Format : MPEG-4
Format profile : Base Media / Version 2
Codec ID : mp42 (mp42/avc1/CAEP)
File size : 172 MiB
Duration : 1 min 2 s
Overall bit rate : 23.0 Mb/s
Encoded date : UTC 2019-04-10 16:20:18

Video
ID : 1
Format : AVC
Format/Info : Advanced Video Codec
Format profile : High@L4.1
Format settings : CABAC / 2 Ref Frames
Format settings, CABAC : Yes
Format settings, RefFrames : 2 frames
Format settings, GOP : M=3, N=12
Codec ID : avc1
Codec ID/Info : Advanced Video Coding
Duration : 1 min 2 s
Bit rate : 23.0 Mb/s
Width : 1 920 pixels
Height : 1 080 pixels
Display aspect ratio : 16:9
Frame rate mode : Constant
Frame rate : 25.000 FPS
Color space : YUV
Chroma subsampling : 4:2:0
Bit depth : 8 bits
Scan type : Progressive
Bits/(Pixel*Frame) : 0.443
Stream size : 172 MiB (100%)
Language : English
Encoded date : UTC 2019-04-10 16:20:18
Color range : Limited
Color primaries : BT.709
Transfer characteristics : BT.709
Matrix coefficients : BT.709
Codec configuration box : avcC

Fast Motion 10x Timelapse : Canon Legria HF-R706 : Video Test #003 23.0 Mb/s 25fps




10x Fast Motion Timelapse
10 minutes as 1 minute
Canon Legria HF-R706
Video Test #003
25fps 23.0 Mb/s

Complete name : E:\DCIM\111_0410\MVI_7990.MP4
Format : MPEG-4
Format profile : Base Media / Version 2
Codec ID : mp42 (mp42/avc1/CAEP)
File size : 195 MiB
Duration : 1 min 11 s
Overall bit rate : 23.0 Mb/s
Encoded date : UTC 2019-04-10 15:55:27

Video
ID : 1
Format : AVC
Format/Info : Advanced Video Codec
Format profile : High@L4.1
Format settings : CABAC / 2 Ref Frames
Format settings, CABAC : Yes
Format settings, RefFrames : 2 frames
Format settings, GOP : M=3, N=12
Codec ID : avc1
Codec ID/Info : Advanced Video Coding
Duration : 1 min 11 s
Bit rate : 23.0 Mb/s
Width : 1 920 pixels
Height : 1 080 pixels
Display aspect ratio : 16:9
Frame rate mode : Constant
Frame rate : 25.000 FPS
Color space : YUV
Chroma subsampling : 4:2:0
Bit depth : 8 bits
Scan type : Progressive
Bits/(Pixel*Frame) : 0.443
Stream size : 194 MiB (100%)
Language : English
Encoded date : UTC 2019-04-10 15:55:27

Color range : Limited
Color primaries : BT.709
Transfer characteristics : BT.709
Matrix coefficients : BT.709
Codec configuration box : avcC

Fast Motion 4x Timelapse : Canon Legria HF-R706 : Video Test #002 23.0 Mb/s 25fps



4x Fast Motion Timelapse
4 minutes as 1 minute
Canon Legria HF-R706
Video Test #002
25fps 23.0 Mb/s

Complete name : DCIM\111_0410\MVI_7991.MP4
Format : MPEG-4
Format profile : Base Media / Version 2
Codec ID : mp42 (mp42/avc1/CAEP)
File size : 454 MiB
Duration : 2 min 45 s
Overall bit rate : 23.0 Mb/s
Encoded date : UTC 2019-04-10 16:08:59

Video
ID : 1
Format : AVC
Format/Info : Advanced Video Codec
Format profile : High@L4.1
Format settings : CABAC / 2 Ref Frames
Format settings, CABAC : Yes
Format settings, RefFrames : 2 frames
Format settings, GOP : M=3, N=12
Codec ID : avc1
Codec ID/Info : Advanced Video Coding
Duration : 2 min 45 s
Bit rate : 23.0 Mb/s
Width : 1 920 pixels
Height : 1 080 pixels
Display aspect ratio : 16:9
Frame rate mode : Constant
Frame rate : 25.000 FPS
Color space : YUV
Chroma subsampling : 4:2:0
Bit depth : 8 bits
Scan type : Progressive
Bits/(Pixel*Frame) : 0.443
Stream size : 453 MiB (100%)
Language : English
Encoded date : UTC 2019-04-10 16:08:59

Color range : Limited
Color primaries : BT.709
Transfer characteristics : BT.709
Matrix coefficients : BT.709
Codec configuration box : avcC

Sunset Nei Pori, Sony DSC-H300 video test #001 9Mb/s 720 30FPS




Sunset Nei Pori, Sony DSC-H300 video test #001 9Mb/s 720 30FPS


Complete name : SONY\DSC-H300\Video\MAH01054.MP4
Format : MPEG-4
Format profile : Sony PSP
Codec ID : MSNV (MSNV/mp42/isom)
File size : 16.1 MiB
Duration : 14 s 515 ms
Overall bit rate mode : Variable
Overall bit rate : 9 329 kb/s
Encoded date : UTC 2017-07-08 20:28:53


Video
ID : 1
Format : AVC
Format/Info : Advanced Video Codec
Format profile : Main@L4
Format settings : CABAC / 2 Ref Frames
Format settings, CABAC : Yes
Format settings, RefFrames : 2 frames
Format settings, GOP : M=1, N=8
Codec ID : avc1
Codec ID/Info : Advanced Video Coding
Duration : 14 s 515 ms
Bit rate mode : Variable
Bit rate : 9 195 kb/s
Maximum bit rate : 16.0 Mb/s
Width : 1 280 pixels
Height : 720 pixels
Display aspect ratio : 16:9
Frame rate mode : Constant
Frame rate : 29.970 (30000/1001) FPS
Color space : YUV
Chroma subsampling : 4:2:0
Bit depth : 8 bits
Scan type : Progressive
Bits/(Pixel*Frame) : 0.333
Stream size : 15.9 MiB (99%)
Encoded date : UTC 2017-07-08 20:28:53
Tagged date : UTC 2017-07-08 20:28:53
Codec configuration box : avcC

Audio
ID : 2
Format : AAC LC
Format/Info : Advanced Audio Codec Low Complexity
Codec ID : mp4a-40-2
Duration : 14 s 507 ms
Bit rate mode : Constant
Bit rate : 128 kb/s
Channel(s) : 2 channels
Channel layout : L R
Sampling rate : 48.0 kHz
Frame rate : 46.875 FPS (1024 SPF)
Compression mode : Lossy
Stream size : 227 KiB (1%)
Encoded date : UTC 2017-07-08 20:28:53

Nikon D3200 test 4k Upscaled Video UHD 362 Mb/s




4k test
Nikon D3200 4k test upscaled video UHD
https://www.youtube.com/watch?v=8g_wM0gDD4U in FHD
Video Test 2160 25p 362 Mb/s
Mode M iso 200
Lens : Tamron ZOOM MACRO 1:4.5 85-210mm 55MM BBAR MULTI C.
filmed in MACRO

Complete name : 4κ.mp4
Format : MPEG-4
Format profile : Base Media
Codec ID : isom (isom/iso2/mp41)
File size : 1.35 GiB
Duration : 31 s 936 ms
Overall bit rate : 362 Mb/s
Writing application : Lavf57.83.100

Video
ID : 1
Format : HEVC
Format/Info : High Efficiency Video Coding
Format profile : Main@L5@Main
Codec ID : hev1
Codec ID/Info : High Efficiency Video Coding
Duration : 31 s 920 ms
Bit rate : 361 Mb/s
Width : 3 840 pixels
Height : 2 160 pixels
Display aspect ratio : 16:9
Frame rate mode : Constant
Frame rate : 25.000 FPS
Color space : YUV
Chroma subsampling : 4:2:0
Bit depth : 8 bits
Bits/(Pixel*Frame) : 1.743
Stream size : 1.34 GiB (100%)
Writing library : x265 2.5:[Windows][GCC 7.2.0][64 bit] 8bit
Encoding settings : cpuid=1050111 / frame-threads=4 / numa-pools=4 / wpp / no-pmode / no-pme / no-psnr / no-ssim / log-level=2 / input-csp=1 / input-res=3840x2160 / interlace=0 / total-frames=0 / level-idc=0 / high-tier=1 / uhd-bd=0 / ref=5 / no-allow-non-conformance / no-repeat-headers / annexb / no-aud / no-hrd / info / hash=0 / no-temporal-layers / open-gop / min-keyint=25 / keyint=250 / bframes=8 / b-adapt=2 / b-pyramid / bframe-bias=0 / rc-lookahead=40 / lookahead-slices=0 / scenecut=40 / no-intra-refresh / ctu=64 / min-cu-size=8 / rect / amp / max-tu-size=32 / tu-inter-depth=3 / tu-intra-depth=3 / limit-tu=4 / rdoq-level=2 / dynamic-rd=0.00 / no-ssim-rd / signhide / no-tskip / nr-intra=0 / nr-inter=0 / no-constrained-intra / strong-intra-smoothing / max-merge=4 / limit-refs=1 / limit-modes / me=3 / subme=4 / merange=57 / temporal-mvp / weightp / weightb / no-analyze-src-pics / deblock=0:0 / sao / no-sao-non-deblock / rd=6 / no-early-skip / rskip / no-fast-intra / no-tskip-fast / no-cu-lossless / b-intra / rdpenalty=0 / psy-rd=2.00 / psy-rdoq=1.00 / no-rd-refine / analysis-reuse-mode=0 / no-lossless / cbqpoffs=0 / crqpoffs=0 / rc=crf / crf=0.0 / qcomp=0.60 / qpstep=4 / stats-write=0 / stats-read=0 / ipratio=1.40 / pbratio=1.30 / aq-mode=1 / aq-strength=1.00 / cutree / zone-count=0 / no-strict-cbr / qg-size=32 / no-rc-grain / qpmax=69 / qpmin=0 / no-const-vbv / sar=0 / overscan=0 / videoformat=5 / range=0 / colorprim=2 / transfer=2 / colormatrix=2 / chromaloc=0 / display-window=0 / max-cll=0,0 / min-luma=0 / max-luma=255 / log2-max-poc-lsb=8 / vui-timing-info / vui-hrd-info / slices=1 / opt-qp-pps / opt-ref-list-length-pps / no-multi-pass-opt-rps / scenecut-bias=0.05 / no-opt-cu-delta-qp / no-aq-motion / no-hdr / no-hdr-opt / no-dhdr10-opt / analysis-reuse-level=5 / scale-factor=0 / refine-intra=0 / refine-inter=0 / refine-mv=0 / no-limit-sao / ctu-info=0
Codec configuration box : hvcC

Audio
ID : 2
Format : AAC LC
Format/Info : Advanced Audio Codec Low Complexity
Codec ID : mp4a-40-2
Duration : 31 s 936 ms
Bit rate mode : Constant
Bit rate : 192 kb/s
Channel(s) : 2 channels
Channel layout : L R
Sampling rate : 48.0 kHz
Frame rate : 46.875 FPS (1024 SPF)
Compression mode : Lossy
Stream size : 749 KiB (0%)
Default : Yes
Alternate group : 1

Canon Legria HF-R706 test 8k Upscaled Video FUHD




8k test
Canon Legria HF-R706 8k test upscaled video FUHD


Complete name : Canon\8k.mp4
Format : MPEG-4
Format profile : Base Media
Codec ID : isom (isom/iso2/avc1/mp41)
File size : 409 MiB
Duration : 46 s 571 ms
Overall bit rate : 73.7 Mb/s
Writing application : Lavf57.83.100

Video
ID : 1
Format : AVC
Format/Info : Advanced Video Codec
Format profile : High@L5.2
Format settings : CABAC / 3 Ref Frames
Format settings, CABAC : Yes
Format settings, RefFrames : 3 frames
Format settings, GOP : N=1
Codec ID : avc1
Codec ID/Info : Advanced Video Coding
Duration : 46 s 560 ms
Bit rate : 73.5 Mb/s
Nominal bit rate : 5 000 kb/s
Width : 7 680 pixels
Height : 4 320 pixels
Display aspect ratio : 16:9
Frame rate mode : Constant
Frame rate : 25.000 FPS
Color space : YUV
Chroma subsampling : 4:2:0
Bit depth : 8 bits
Scan type : Progressive
Bits/(Pixel*Frame) : 0.089
Stream size : 408 MiB (100%)
Writing library : x264 core 148 r2721M 72d53ab
Encoding settings : cabac=1 / ref=3 / deblock=1:0:0 / analyse=0x3:0x113 / me=hex / subme=7 / psy=1 / psy_rd=1.00:0.00 / mixed_ref=1 / me_range=16 / chroma_me=1 / trellis=1 / 8x8dct=1 / cqm=0 / deadzone=21,11 / fast_pskip=1 / chroma_qp_offset=-2 / threads=4 / lookahead_threads=1 / sliced_threads=0 / nr=0 / decimate=1 / interlaced=0 / bluray_compat=0 / constrained_intra=0 / bframes=0 / weightp=2 / keyint=12 / keyint_min=1 / scenecut=40 / intra_refresh=0 / rc_lookahead=12 / rc=abr / mbtree=1 / bitrate=5000 / ratetol=1.0 / qcomp=0.60 / qpmin=2 / qpmax=30 / qpstep=4 / ip_ratio=1.40 / aq=1:1.00
Codec configuration box : avcC

Audio
ID : 2
Format : AAC LC
Format/Info : Advanced Audio Codec Low Complexity
Codec ID : mp4a-40-2
Duration : 46 s 571 ms
Bit rate mode : Constant
Bit rate : 129 kb/s
Channel(s) : 2 channels
Channel layout : L R
Sampling rate : 48.0 kHz
Frame rate : 46.875 FPS (1024 SPF)
Compression mode : Lossy
Stream size : 731 KiB (0%)
Default : Yes
Alternate group : 1

Flowers 3 : Nikon D3200 Video Test #003 1080 25p 21.9 Mb/s + Tamron 85-210mm f/4.5 FHD





Flowers 3
Camera : Nikon D3200   Video Test #003
Shutter 1250 1080 25p 21.9 Mb/s
Mode M iso 200
Lens : Tamron ZOOM MACRO 1:4.5 85-210mm 55MM BBAR MULTI C.
filmed in MACRO

Complete name : F:\DCIM\103D3200\DSC_7863.MOV
Format : MPEG-4
Format profile : QuickTime
Codec ID : qt 2007.09 (qt /niko)
File size : 84.7 MiB
Duration : 32 s 520 ms
Overall bit rate : 21.8 Mb/s
Encoded date : UTC 2019-04-03 16:20:29

NCDT : NCTG

Video
ID : 1
Format : AVC
Format/Info : Advanced Video Codec
Format profile : High@L4
Format settings : CABAC / 2 Ref Frames
Format settings, CABAC : Yes
Format settings, RefFrames : 2 frames
Format settings, GOP : M=3, N=12
Codec ID : avc1
Codec ID/Info : Advanced Video Coding
Duration : 32 s 520 ms
Bit rate : 20.2 Mb/s
Width : 1 920 pixels
Height : 1 080 pixels
Display aspect ratio : 16:9
Frame rate mode : Constant
Frame rate : 25.000 FPS
Color space : YUV
Chroma subsampling : 4:2:0
Bit depth : 8 bits
Scan type : Progressive
Bits/(Pixel*Frame) : 0.391
Stream size : 78.5 MiB (93%)
Language : English
Encoded date : UTC 2019-04-03 16:20:29

Color range : Full
Color primaries : BT.709
transfer_characteristics_Original : BT.470 System M
Matrix coefficients : BT.601
Codec configuration box : avcC

Audio
ID : 2
Format : PCM
Format settings : Little / Signed
Codec ID : sowt
Duration : 32 s 520 ms
Bit rate mode : Constant
Bit rate : 1 536 kb/s
Channel(s) : 2 channels
Channel layout : L R
Sampling rate : 48.0 kHz
Bit depth : 16 bits
Stream size : 5.95 MiB (7%)
Language : English
Encoded date : UTC 2019-04-03 16:20:29

Flowers 2 : Nikon D3200 Video Test #002 1080 25p 21.9 Mb/s + Tamron 85-210mm f/4.5 FHD



Flowers 2
Camera : Nikon D3200   Video Test #002
https://www.youtube.com/watch?v=iU3JDI4SZmw&feature=youtu.be UPSCALLED TO 4K UHD
Shutter 1250 1080 25p 21.9 Mb/s
Mode M iso 200
Lens : Tamron ZOOM MACRO 1:4.5 85-210mm 55MM BBAR MULTI C.
filmed in MACRO

Complete name : DCIM\103D3200\DSC_7861.MOV
Format : MPEG-4
Format profile : QuickTime
Codec ID : qt 2007.09 (qt /niko)
File size : 83.9 MiB
Duration : 31 s 920 ms
Overall bit rate : 22.1 Mb/s
Encoded date : UTC 2019-04-03 16:19:16

NCDT : NCTG

Video
ID : 1
Format : AVC
Format/Info : Advanced Video Codec
Format profile : High@L4
Format settings : CABAC / 2 Ref Frames
Format settings, CABAC : Yes
Format settings, RefFrames : 2 frames
Format settings, GOP : M=3, N=12
Codec ID : avc1
Codec ID/Info : Advanced Video Coding
Duration : 31 s 920 ms
Bit rate : 20.5 Mb/s
Width : 1 920 pixels
Height : 1 080 pixels
Display aspect ratio : 16:9
Frame rate mode : Constant
Frame rate : 25.000 FPS
Color space : YUV
Chroma subsampling : 4:2:0
Bit depth : 8 bits
Scan type : Progressive
Bits/(Pixel*Frame) : 0.395
Stream size : 77.8 MiB (93%)
Language : English
Encoded date : UTC 2019-04-03 16:19:16

Color range : Full
Color primaries : BT.709
transfer_characteristics_Original : BT.470 System M
Matrix coefficients : BT.601
Codec configuration box : avcC

Audio
ID : 2
Format : PCM
Format settings : Little / Signed
Codec ID : sowt
Duration : 31 s 920 ms
Bit rate mode : Constant
Bit rate : 1 536 kb/s
Channel(s) : 2 channels
Channel layout : L R
Sampling rate : 48.0 kHz
Bit depth : 16 bits
Stream size : 5.84 MiB (7%)
Language : English
Encoded date : UTC 2019-04-03 16:19:16

Flowers 1 : Nikon D3200 Video Test #001 1080 25p 21.9 Mb/s + Tamron 85-210mm f/4.5 FHD




Flowers 1
Camera : Nikon D3200   Video Test #001
Shutter 1250 1080 25p 21.9 Mb/s FHD
Mode M iso 200
Lens : Tamron ZOOM MACRO 1:4.5 85-210mm 55MM BBAR MULTI C.
filmed in MACRO


Complete name : DCIM\103D3200\DSC_7858.MOV
Format : MPEG-4
Format profile : QuickTime
Codec ID : qt 2007.09 (qt /niko)
File size : 103 MiB
Duration : 39 s 240 ms
Overall bit rate : 21.9 Mb/s
Encoded date : UTC 2019-04-03 16:16:45

NCDT : NCTG

Video
ID : 1
Format : AVC
Format/Info : Advanced Video Codec
Format profile : High@L4
Format settings : CABAC / 2 Ref Frames
Format settings, CABAC : Yes
Format settings, RefFrames : 2 frames
Format settings, GOP : M=3, N=12
Codec ID : avc1
Codec ID/Info : Advanced Video Coding
Duration : 39 s 240 ms
Bit rate : 20.4 Mb/s
Width : 1 920 pixels
Height : 1 080 pixels
Display aspect ratio : 16:9
Frame rate mode : Constant
Frame rate : 25.000 FPS
Color space : YUV
Chroma subsampling : 4:2:0
Bit depth : 8 bits
Scan type : Progressive
Bits/(Pixel*Frame) : 0.393
Stream size : 95.2 MiB (93%)
Language : English
Encoded date : UTC 2019-04-03 16:16:45

Color range : Full
Color primaries : BT.709
transfer_characteristics_Original : BT.470 System M
Matrix coefficients : BT.601
Codec configuration box : avcC

Audio
ID : 2
Format : PCM
Format settings : Little / Signed
Codec ID : sowt
Duration : 39 s 240 ms
Bit rate mode : Constant
Bit rate : 1 536 kb/s
Channel(s) : 2 channels
Channel layout : L R
Sampling rate : 48.0 kHz
Bit depth : 16 bits
Stream size : 7.19 MiB (7%)
Language : English
Encoded date : UTC 2019-04-03 16:16:45

Flowers : Canon Legria HF-R706 : Video Test #001 1080p 50fps 34Mb/s




Flowers : Canon Legria HF-R706
Video Test #001 1080p 50fps 34Mb/s
Teleconverter ON

Complete name : Canon\105_0402\MVI_0025.MP4
Format : MPEG-4
Format profile : Base Media / Version 2
Codec ID : mp42 (mp42/avc1/CAEP)
File size : 193 MiB
Duration : 46 s 560 ms
Overall bit rate : 34.7 Mb/s
Encoded date : UTC 2019-04-02 17:26:55


Video
ID : 1
Format : AVC
Format/Info : Advanced Video Codec
Format profile : High@L4.2
Format settings : CABAC / 2 Ref Frames
Format settings, CABAC : Yes
Format settings, RefFrames : 2 frames
Format settings, GOP : M=3, N=24
Codec ID : avc1
Codec ID/Info : Advanced Video Coding
Duration : 46 s 560 ms
Bit rate : 34.4 Mb/s
Width : 1 920 pixels
Height : 1 080 pixels
Display aspect ratio : 16:9
Frame rate mode : Constant
Frame rate : 50.000 FPS
Color space : YUV
Chroma subsampling : 4:2:0
Bit depth : 8 bits
Scan type : Progressive
Bits/(Pixel*Frame) : 0.332
Stream size : 191 MiB (99%)
Language : English
Encoded date : UTC 2019-04-02 17:26:55
Tagged date : UTC 2019-04-02 17:26:55
Color range : Limited
Color primaries : BT.709
Transfer characteristics : BT.709
Matrix coefficients : BT.709
Codec configuration box : avcC

Audio
ID : 2
Format : AAC LC
Format/Info : Advanced Audio Codec Low Complexity
Codec ID : mp4a-40-2
Duration : 46 s 549 ms
Bit rate mode : Constant
Bit rate : 256 kb/s
Channel(s) : 2 channels
Channel layout : L R
Sampling rate : 48.0 kHz
Frame rate : 46.875 FPS (1024 SPF)
Compression mode : Lossy
Stream size : 1.41 MiB (1%)
Language : English
Encoded date : UTC 2019-04-02 17:26:55

Full Moon 21 March 2019 : Sony DSC-H400 63x ZOOM



Full Moon  21 March 2019 720 30fps
Camera : Sony DSC-H400  SteadyShot  on  -  Zoom 63x


Complete name :MAH00010.MP4
Format : MPEG-4
Format profile : Sony PSP
Codec ID : MSNV (MSNV/mp42/isom)
File size : 34.8 MiB
Duration : 32 s 32 ms
Overall bit rate mode : Variable
Overall bit rate : 9 102 kb/s
Encoded date : UTC 2019-03-22 04:11:34
Tagged date : UTC 2019-03-22 04:11:34

Video
ID : 1
Format : AVC
Format/Info : Advanced Video Codec
Format profile : Main@L4
Format settings : CABAC / 2 Ref Frames
Format settings, CABAC : Yes
Format settings, RefFrames : 2 frames
Format settings, GOP : M=1, N=8
Codec ID : avc1
Codec ID/Info : Advanced Video Coding
Duration : 32 s 32 ms
Bit rate mode : Variable
Bit rate : 8 969 kb/s
Maximum bit rate : 16.0 Mb/s
Width : 1 280 pixels
Height : 720 pixels
Display aspect ratio : 16:9
Frame rate mode : Constant
Frame rate : 29.970 (30000/1001) FPS
Color space : YUV
Chroma subsampling : 4:2:0
Bit depth : 8 bits
Scan type : Progressive
Bits/(Pixel*Frame) : 0.325
Stream size : 34.2 MiB (99%)
Encoded date : UTC 2019-03-22 04:11:34
Codec configuration box : avcC

Audio
ID : 2
Format : AAC LC
Format/Info : Advanced Audio Codec Low Complexity
Codec ID : mp4a-40-2
Duration : 32 s 21 ms
Bit rate mode : Constant
Bit rate : 128 kb/s
Channel(s) : 2 channels
Channel layout : L R
Sampling rate : 48.0 kHz
Frame rate : 46.875 FPS (1024 SPF)
Compression mode : Lossy
Stream size : 500 KiB (1%)
Encoded date : UTC 2019-03-22 04:11:34

Full Moon 21 March 2019 : Sanyo Xacti VPC-CG100



Full Moon  21 March 2019 1080 50i
Camera Sanyo Xacti VPC-CG100  Video Stabilazer ON  -Exposure M Manual Zoom 5x

Complete name : SANYO\SANY0004.MP4
Format : MPEG-4
Format profile : Base Media / Version 2
Codec ID : mp42 (mp42/avc1)
File size : 24.3 MiB
Duration : 31 s 31 ms
Overall bit rate mode : Variable
Overall bit rate : 6 556 kb/s
Movie_More : SANYO DIGITAL CAMERA CG100
Encoded date : UTC 2019-03-22 04:06:08
Origin : Digital Camera

Video
ID : 1
Format : AVC
Format/Info : Advanced Video Codec
Format profile : Baseline@L4
Format settings : 2 Ref Frames
Format settings, CABAC : No
Format settings, RefFrames : 2 frames
Format settings, GOP : N=1
Codec ID : avc1
Codec ID/Info : Advanced Video Coding
Duration : 31 s 31 ms
Bit rate : 6 151 kb/s
Width : 1 920 pixels
Height : 1 080 pixels
Display aspect ratio : 16:9
Frame rate mode : Constant
Frame rate : 29.970 (30000/1001) FPS
Color space : YUV
Chroma subsampling : 4:2:0
Bit depth : 8 bits
Scan type : Progressive
Bits/(Pixel*Frame) : 0.099
Stream size : 22.8 MiB (94%)
Language : English
Encoded date : UTC 2019-03-22 04:06:08
Color range : Full
Color primaries : BT.709
Transfer characteristics : BT.709
Matrix coefficients : BT.709
Codec configuration box : avcC

Audio
ID : 2
Format : AAC LC
Format/Info : Advanced Audio Codec Low Complexity
Codec ID : mp4a-40-2
Duration : 31 s 31 ms
Source duration : 31 s 211 ms
Bit rate mode : Variable
Bit rate : 256 kb/s
Maximum bit rate : 192 kb/s
Channel(s) : 2 channels
Channel layout : L R
Sampling rate : 48.0 kHz
Frame rate : 46.875 FPS (1024 SPF)
Compression mode : Lossy
Stream size : 957 KiB (4%)
Source stream size : 962 KiB (4%)
Language : English
Encoded date : UTC 2019-03-22 04:06:08

Full Moon 21 March 2019 : Samsung NX20



Full Moon 21 March 2019 1920 810P 24P
Camera Samsung NX20   SteadyShot  NO - MF Manual Shoting ISO 100 f/8
Lens SIGMA MIRROR-TELEPHOTO f/8 600mm M42 adapted to NX

Complete name : DCIM\100PHOTO\SAM_0072.MP4
Format : MPEG-4
Format profile : Base Media / Version 2
Codec ID : mp42 (mp42/isom/avc1)
File size : 18.5 MiB
Duration : 31 s 616 ms
Overall bit rate : 4 904 kb/s

Video
ID : 1
Format : AVC
Format/Info : Advanced Video Codec
Format profile : High@L4.1
Format settings : 2 Ref Frames
Format settings, CABAC : No
Format settings, RefFrames : 2 frames
Format settings, GOP : M=1, N=24
Codec ID : avc1
Codec ID/Info : Advanced Video Coding
Duration : 31 s 415 ms
Bit rate : 4 796 kb/s
Width : 1 920 pixels
Height : 810 pixels
Display aspect ratio : 2.40:1
Frame rate mode : Constant
Frame rate : 24.000 FPS
Color space : YUV
Chroma subsampling : 4:2:0
Bit depth : 8 bits
Scan type : Progressive
Bits/(Pixel*Frame) : 0.129
Stream size : 18.0 MiB (97%)
Language : English
Codec configuration box : avcC

Audio
ID : 2
Format : AAC LC
Format/Info : Advanced Audio Codec Low Complexity
Codec ID : mp4a-40-2
Duration : 31 s 616 ms
Bit rate mode : Constant
Bit rate : 128 kb/s
Channel(s) : 2 channels
Channel layout : L R
Sampling rate : 32.0 kHz
Frame rate : 31.250 FPS (1024 SPF)
Compression mode : Lossy
Stream size : 490 KiB (3%)
Language : English

Full Moon 21 March 2019 : Sony HDR-CX190E




Full Moon  21 March 2019 1080 50i
Camera Sony HDR-CX410vE  SteadyShot  Standard  - Manual Exposure 35% Zoom 30x

Complete name : E:\PRIVATE\AVCHD\BDMV\STREAM\00001.MTS
Format : BDAV
Format/Info : Blu-ray Video
File size : 97.0 MiB
Duration : 36 s 362 ms
Overall bit rate mode : Variable
Overall bit rate : 22.4 Mb/s
Maximum Overall bit rate : 24.0 Mb/s
Recorded date : 2019-03-21 22:20:57+02:00
Writing application : Sony HDR-CX190E

Video
ID : 4113 (0x1011)
Menu ID : 1 (0x1)
Format : AVC
Format/Info : Advanced Video Codec
Format profile : High@L4
Format settings : CABAC / 2 Ref Frames
Format settings, CABAC : Yes
Format settings, RefFrames : 2 frames
Format settings, GOP : M=2, N=13
Codec ID : 27
Duration : 36 s 320 ms
Bit rate mode : Variable
Bit rate : 21.2 Mb/s
Maximum bit rate : 22.0 Mb/s
Width : 1 920 pixels
Height : 1 080 pixels
Display aspect ratio : 16:9
Frame rate : 25.000 FPS
Color space : YUV
Chroma subsampling : 4:2:0
Bit depth : 8 bits
Scan type : Interlaced
Scan type, store method : Separated fields
Scan order : Top Field First
Bits/(Pixel*Frame) : 0.409
Stream size : 91.9 MiB (95%)
IrisFNumber : 3.400000

Audio
ID : 4352 (0x1100)
Menu ID : 1 (0x1)
Format : AC-3
Format/Info : Audio Coding 3
Commercial name : Dolby Digital
Codec ID : 129
Duration : 36 s 416 ms
Bit rate mode : Constant
Bit rate : 256 kb/s
Channel(s) : 2 channels
Channel layout : L R
Sampling rate : 48.0 kHz
Frame rate : 31.250 FPS (1536 SPF)
Bit depth : 16 bits
Compression mode : Lossy
Delay relative to video : -80 ms
Stream size : 1.11 MiB (1%)
Service kind : Complete Main

Text
ID : 4608 (0x1200)
Menu ID : 1 (0x1)
Format : PGS
Codec ID : 144
Duration : 35 s 815 ms
Delay relative to video : -80 ms

Full Moon 21 March 2019 : Sony HDR-CX410VE



Full Moon  21 March 2019 1080 50p
Camera Sony HDR-CX410vE  SteadyShot  Standard  - MF Manual Shoting  SpotMeter/Fcs Zoom 55x

Complete name : AVCHD\BDMV\STREAM\00016.MTS
Format : BDAV
Format/Info : Blu-ray Video
File size : 126 MiB
Duration : 40 s 580 ms
Overall bit rate mode : Variable
Overall bit rate : 26.1 Mb/s
Maximum Overall bit rate : 28.0 Mb/s
Recorded date : 2019-03-21 22:17:52+02:00
Writing application : Sony HDR-CX410VE

Video
ID : 4113 (0x1011)
Menu ID : 1 (0x1)
Format : AVC
Format/Info : Advanced Video Codec
Format profile : High@L4.2
Format settings : CABAC / 2 Ref Frames
Format settings, CABAC : Yes
Format settings, RefFrames : 2 frames
Format settings, GOP : M=1, N=12
Codec ID : 27
Duration : 39 s 840 ms
Bit rate mode : Variable
Bit rate : 24.6 Mb/s
Maximum bit rate : 26.0 Mb/s
Width : 1 920 pixels
Height : 1 080 pixels
Display aspect ratio : 16:9
Frame rate : 50.000 FPS
Color space : YUV
Chroma subsampling : 4:2:0
Bit depth : 8 bits
Scan type : Progressive
Bits/(Pixel*Frame) : 0.238
Stream size : 117 MiB (93%)
IrisFNumber : 4.000000

Audio
ID : 4352 (0x1100)
Menu ID : 1 (0x1)
Format : AC-3
Format/Info : Audio Coding 3
Commercial name : Dolby Digital
Codec ID : 129
Duration : 39 s 840 ms
Bit rate mode : Constant
Bit rate : 448 kb/s
Channel(s) : 6 channels
Channel layout : L R C LFE Ls Rs
Sampling rate : 48.0 kHz
Frame rate : 31.250 FPS (1536 SPF)
Bit depth : 16 bits
Compression mode : Lossy
Stream size : 2.13 MiB (2%)
Service kind : Complete Main

Text
ID : 4608 (0x1200)
Menu ID : 1 (0x1)
Format : PGS
Codec ID : 144
Duration : 39 s 295 ms

Full Moon 21 March 2019 : SONY SLT-a58



Full Moon  21 March 2019
Camera SONY  SLT-a58  SteadyShot  On - MF Manual Shoting ISO 100 f11 Digital Zoom 2x
Lens Sony Sal 75300 75-300mm

Complete name : AVCHD\BDMV\STREAM\00035.MTS
Format : BDAV
Format/Info : Blu-ray Video
File size : 83.3 MiB
Duration : 31 s 140 ms
Overall bit rate mode : Variable
Overall bit rate : 22.4 Mb/s
Maximum Overall bit rate : 24.0 Mb/s
Recorded date : 2019-03-21 21:51:13+02:00
Writing application : Sony SLT-A58

Video
ID : 4113 (0x1011)
Menu ID : 1 (0x1)
Format : AVC
Format/Info : Advanced Video Codec
Format profile : High@L4
Format settings : CABAC / 2 Ref Frames
Format settings, CABAC : Yes
Format settings, RefFrames : 2 frames
Format settings, GOP : M=2, N=13
Codec ID : 27
Duration : 31 s 120 ms
Bit rate mode : Variable
Bit rate : 21.3 Mb/s
Maximum bit rate : 22.0 Mb/s
Width : 1 920 pixels
Height : 1 080 pixels
Display aspect ratio : 16:9
Frame rate : 25.000 FPS
Color space : YUV
Chroma subsampling : 4:2:0
Bit depth : 8 bits
Scan type : Interlaced
Scan type, store method : Separated fields
Scan order : Top Field First
Bits/(Pixel*Frame) : 0.410
Stream size : 78.9 MiB (95%)
IrisFNumber : 8.000000

Audio
ID : 4352 (0x1100)
Menu ID : 1 (0x1)
Format : AC-3
Format/Info : Audio Coding 3
Commercial name : Dolby Digital
Codec ID : 129
Duration : 31 s 200 ms
Bit rate mode : Constant
Bit rate : 256 kb/s
Channel(s) : 2 channels
Channel layout : L R
Sampling rate : 48.0 kHz
Frame rate : 31.250 FPS (1536 SPF)
Bit depth : 16 bits
Compression mode : Lossy
Delay relative to video : -80 ms
Stream size : 975 KiB (1%)
Service kind : Complete Main

Text
ID : 4608 (0x1200)
Menu ID : 1 (0x1)
Format : PGS
Codec ID : 144
Duration : 30 s 615 ms
Delay relative to video : -80 ms

Full Moon 21 March 2019 : OM-D E-M10



Full Moon  21 March 2019
Camera Olympus OM-D E-M10 Movie-i.s.  On MF Manual Shoting ISO 400 f8.0 Zoom Crop Sensor
Lens Panasonic Lumix H-FS1410 M4/3 14-140MM POWER O.I,S. OFF


Complete name : P3210783.MOV
Format : MPEG-4
Format profile : QuickTime
Codec ID : qt 2011.07 (qt )
File size : 41.0 MiB
Duration : 30 s 30 ms
Overall bit rate : 11.5 Mb/s
Encoded date : UTC 2019-03-21 21:29:56
TAGS : 8"R

Video
ID : 1
Format : AVC
Format/Info : Advanced Video Codec
Format profile : High@L4.1
Format settings : 2 Ref Frames
Format settings, CABAC : No
Format settings, RefFrames : 2 frames
Format settings, GOP : M=3, N=8
Codec ID : avc1
Codec ID/Info : Advanced Video Coding
Duration : 30 s 30 ms
Bit rate : 9 676 kb/s
Width : 1 920 pixels
Height : 1 080 pixels
Display aspect ratio : 16:9
Frame rate mode : Constant
Frame rate : 29.970 (30000/1001) FPS
Color space : YUV
Chroma subsampling : 4:2:0
Bit depth : 8 bits
Scan type : Progressive
Bits/(Pixel*Frame) : 0.156
Stream size : 34.6 MiB (84%)
Language : Japanese
Encoded date : UTC 2019-03-21 21:29:56
Color range : Full
Color primaries : BT.601 NTSC
Transfer characteristics : BT.601
Matrix coefficients : BT.601
Menus : 0
Codec configuration box : avcC

Audio
ID : 2
Format : PCM
Format settings : Little / Signed
Codec ID : sowt
Duration : 30 s 30 ms
Source duration : 30 s 40 ms
Bit rate mode : Constant
Bit rate : 1 536 kb/s
Channel(s) : 2 channels
Channel layout : L R
Sampling rate : 48.0 kHz
Bit depth : 16 bits
Stream size : 5.50 MiB (13%)
Source stream size : 5.50 MiB (13%)
Language : Japanese
Encoded date : UTC 2019-03-21 21:29:56

42LB5610 LG LED TV with IPS defective malfunction TCON?



LED LG 42LB5610 defective malfunction
Half screen WITH 3 vertical bars, black, gray, white.
like test patern
T-con? defect?

filmed with Sanyo XACTI VPC-CG100

Sanyo Xacti VPC-CG100 Video test #002 1080p 30fps



2. Ανθισμένη μανόλια ροζ κεντρική πλατεία Λάρισα 16/03/2019

Sanyo Xacti VPC-CG100 Video test #001 1080p 30fps
Video Stabilazer ON
Exposure M Manual
Complete name : SANYO\SANY0073.MP4
Format : MPEG-4
Format profile : Base Media / Version 2
Codec ID : mp42 (mp42/avc1)
File size : 52.5 MiB
Duration : 30 s 30 ms
Overall bit rate mode : Variable
Overall bit rate : 14.7 Mb/s
Movie_More : SANYO DIGITAL CAMERA CG100
Encoded date : UTC 2019-03-16 16:25:49
Tagged date : UTC 2019-03-16 16:25:49
Origin : Digital Camera
TAGS : O DIGITAL CAMERA

Video
ID : 1
Format : AVC
Format/Info : Advanced Video Codec
Format profile : Baseline@L4
Format settings : 2 Ref Frames
Format settings, CABAC : No
Format settings, RefFrames : 2 frames
Codec ID : avc1
Codec ID/Info : Advanced Video Coding
Duration : 30 s 30 ms
Bit rate : 14.2 Mb/s
Width : 1 920 pixels
Height : 1 080 pixels
Display aspect ratio : 16:9
Frame rate mode : Constant
Frame rate : 29.970 (30000/1001) FPS
Color space : YUV
Chroma subsampling : 4:2:0
Bit depth : 8 bits
Scan type : Progressive
Bits/(Pixel*Frame) : 0.228
Stream size : 50.7 MiB (97%)
Language : English
Encoded date : UTC 2019-03-16 16:25:49
Color range : Full
Color primaries : BT.709
Transfer characteristics : BT.709
Matrix coefficients : BT.709
Codec configuration box : avcC

Audio
ID : 2
Format : AAC LC
Format/Info : Advanced Audio Codec Low Complexity
Codec ID : mp4a-40-2
Duration : 30 s 30 ms
Source duration : 30 s 208 ms
Bit rate mode : Variable
Bit rate : 256 kb/s
Maximum bit rate : 192 kb/s
Channel(s) : 2 channels
Channel layout : L R
Sampling rate : 48.0 kHz
Frame rate : 46.875 FPS (1024 SPF)
Compression mode : Lossy
Stream size : 935 KiB (2%)
Source stream size : 940 KiB (2%)
Language : English
Encoded date : UTC 2019-03-16 16:25:49

Sanyo Xacti VPC-CG100 Video test #001 1080p 30fps



1. Ανθισμένη μανόλια ροζ κεντρική πλατεία Λάρισα 16/03/2019

Sanyo Xacti VPC-CG100 Video test #001 1080p 30fps
Video Stabilazer ON
Exposure M Manual


Complete name : SANYO\SANY0053.MP4
Format : MPEG-4
Format profile : Base Media / Version 2
Codec ID : mp42 (mp42/avc1)
File size : 54.1 MiB
Duration : 31 s 31 ms
Overall bit rate mode : Variable
Overall bit rate : 14.6 Mb/s
Movie_More : SANYO DIGITAL CAMERA CG100
Encoded date : UTC 2019-03-16 16:21:47
Tagged date : UTC 2019-03-16 16:21:47
Origin : Digital Camera
TAGS : O DIGITAL CAMERA

Video
ID : 1
Format : AVC
Format/Info : Advanced Video Codec
Format profile : Baseline@L4
Format settings : 2 Ref Frames
Format settings, CABAC : No
Format settings, RefFrames : 2 frames
Codec ID : avc1
Codec ID/Info : Advanced Video Coding
Duration : 31 s 31 ms
Bit rate : 14.1 Mb/s
Width : 1 920 pixels
Height : 1 080 pixels
Display aspect ratio : 16:9
Frame rate mode : Constant
Frame rate : 29.970 (30000/1001) FPS
Color space : YUV
Chroma subsampling : 4:2:0
Bit depth : 8 bits
Scan type : Progressive
Bits/(Pixel*Frame) : 0.227
Stream size : 52.3 MiB (97%)
Language : English
Encoded date : UTC 2019-03-16 16:21:47
Color range : Full
Color primaries : BT.709
Transfer characteristics : BT.709
Matrix coefficients : BT.709
Codec configuration box : avcC

Audio
ID : 2
Format : AAC LC
Format/Info : Advanced Audio Codec Low Complexity
Codec ID : mp4a-40-2
Duration : 31 s 31 ms
Source duration : 31 s 211 ms
Bit rate mode : Variable
Bit rate : 256 kb/s
Maximum bit rate : 192 kb/s
Channel(s) : 2 channels
Channel layout : L R
Sampling rate : 48.0 kHz
Frame rate : 46.875 FPS (1024 SPF)
Compression mode : Lossy
Stream size : 963 KiB (2%)
Source stream size : 969 KiB (2%)
Language : English
Encoded date : UTC 2019-03-16 16:21:47

Απονομή Πιστοποιητικών Παρακολούθησης Σεμιναρίου 50 ωρών 2018-2019




Απονομή Πιστοποιητικών Παρακολούθησης Σεμιναρίου 50 ωρών "Η προσωπική και επαγγελματική σχέση των άλλων και του κόσμου: Οι θέσεις της ζωής"
 Σεμινάριο 2018-2019 
Κοινωνιολόγος-σύμβουλος Διονυσία Τριπολίτου

Πέμπτη 7 Μαρτίου 2019 και ώρα 18:00-21:00

Επιμελητήριο Λάρισας


Αward

Καλλιόπη Τζήκα : Ομιλία στην εκδήλωση πιστοποίησης (2018 2019)



Καλλιόπη Τζήκα
Γενική Γραμματέας του Επιμελητηρίου Λάρισας
Ομιλία στην εκδήλωση πιστοποίησης σεμιναρίου 50 ωρών (2018 2019)

Η προσωπική και επαγγελματική σχέση των άλλων και του κόσμου: Οι θέσεις της ζωής  Σεμινάριο 2018-2019 

Κοινωνιολόγος-σύμβουλος Διονυσία Τριπολίτου

Πέμπτη 7 Μαρτίου 2019 και ώρα 18:00-21:00

Επιμελητήριο Λάρισας

Σωτήρης Γιαννακόπουλος : Ομιλία στην εκδήλωση πιστοποίησης (2018 2019)



Πρόεδρος του Επιμελητηρίου Λάρισας
Σωτήρης Γιαννακόπουλος

Ομιλία στην εκδήλωση πιστοποίησης σεμιναρίου 50 ωρών (2018 2019)

Η προσωπική και επαγγελματική σχέση των άλλων και του κόσμου: Οι θέσεις της ζωής  Σεμινάριο 2018-2019 

Κοινωνιολόγος-σύμβουλος Διονυσία Τριπολίτου

Πέμπτη 7 Μαρτίου 2019 και ώρα 18:00-21:00

Επιμελητήριο Λάρισας

Διονυσία Τριπολίτου Ομιλία στην εκδήλωση πιστοποίησης (2018 2019)




Διονυσία Τριπολίτου Ομιλία στην εκδήλωση πιστοποίησης (2018 2019)
Η προσωπική και επαγγελματική σχέση των άλλων και του κόσμου: Οι θέσεις της ζωής  Σεμινάριο 2018-2019 

Κοινωνιολόγος-σύμβουλος Διονυσία Τριπολίτου

Πέμπτη 7 Μαρτίου 2019 και ώρα 18:00-21:00

Επιμελητήριο Λάρισας

Χορευτικό δρώμενο από τον Θωμά Μουτoγιάννο


Θωμάς Μουτογιάννος Δάσκαλος χορού
συμμετέχοντες:
Νίκη Ζυρπιάδου-
Σοφία Κουρκουμπά-
Ντιάνα Κυριτσάκα-
Σταμάτη Μάρκο-Βασιλική
Σταύρου-Αθηνά Ζήκου-
Σταύρο Μπουμπουνάρα-
Αλεξάνδρα Μουχτή-
Θεοδώρα Καραγκούνη-
Μαρία Παπά-
Στυλιανή Σουμουνούδη.
Η θεατρολόγος Βανέσσα Βραχνιάρη  διέθεσε στην σκηνογραφία.

Εκδήλωση πιστοποίησης σεμιναρίου 50 ωρών (2018 2019)



Η προσωπική και επαγγελματική σχέση των άλλων και του κόσμου: Οι θέσεις της ζωής

 Σεμινάριο 2018-2019 
Κοινωνιολόγος-σύμβουλος Διονυσία Τριπολίτου

Πέμπτη 7 Μαρτίου 2019 και ώρα 18:00-21:00

Επιμελητήριο Λάρισας

Olympus OM‑D E‑M10 Firmware update 1.4



Olympus  OM‑D E‑M10 Firmware update to 1.4
Firmware update 1.4 upgrade

Download and Install the OLYMPUS Digital Camera Updater

http://support.olympus-imaging.com/ou1download

Connect the camera with usb cable to the computer

Pentax K-x firmware update v1.03




Pentax K-x Update firmware

Upgrade to firmware v1.03


Filmed with Sony HDR-CX410VE 1920 1080 50p 28Mbit

Insert new batteries

format a sd card and copy the firmware version pentax K-x 1.03

insert the sd card to the camera

hold the menu button and turn on the camera

in the menu select YES

firmware update 1/2 2/2
don't do anythhing to the camera and
when complete

turn off the camera

you have installed the last firmware

Larissa Railway Station : Sony SLT-A58 video test #001 1080 50i 24.0 Mb/s



Larissa station  train Larissa Thessaloniki
Sony SLT-A58 video test #001 1080 50i 24.0 Mb/s
20 megapixels SteadyShot
Lens mount : Sony/Minolta Alpha

Complete name : SONY\SLT-A58\DCIM\STREAM\00051.MTS
Format : BDAV
Format/Info : Blu-ray Video
File size : 78.2 MiB
Duration : 29 s 614 ms
Overall bit rate mode : Variable
Overall bit rate : 22.1 Mb/s
Maximum Overall bit rate : 24.0 Mb/s
Recorded date : 2018-11-10 17:46:17+03:00
Writing application : Sony SLT-A58

Video
ID : 4113 (0x1011)
Menu ID : 1 (0x1)
Format : AVC
Format/Info : Advanced Video Codec
Format profile : High@L4
Format settings : CABAC / 2 Ref Frames
Format settings, CABAC : Yes
Format settings, RefFrames : 2 frames
Format settings, picture structure : Frame
Codec ID : 27
Duration : 29 s 640 ms
Bit rate mode : Variable
Bit rate : 21.0 Mb/s
Maximum bit rate : 22.0 Mb/s
Width : 1 920 pixels
Height : 1 080 pixels
Display aspect ratio : 16:9
Frame rate : 25.000 FPS
Color space : YUV
Chroma subsampling : 4:2:0
Bit depth : 8 bits
Scan type : Interlaced
Scan type, store method : Interleaved fields
Scan order : Top Field First
Bits/(Pixel*Frame) : 0.405
Stream size : 74.2 MiB (95%)
IrisFNumber : 0.000000

Audio
ID : 4352 (0x1100)
Menu ID : 1 (0x1)
Format : AC-3
Format/Info : Audio Coding 3
Commercial name : Dolby Digital
Codec ID : 129
Duration : 29 s 664 ms
Bit rate mode : Constant
Bit rate : 256 kb/s
Channel(s) : 2 channels
Channel layout : L R
Sampling rate : 48.0 kHz
Frame rate : 31.250 FPS (1536 SPF)
Bit depth : 16 bits
Compression mode : Lossy
Stream size : 927 KiB (1%)
Service kind : Complete Main

Text
ID : 4608 (0x1200)
Menu ID : 1 (0x1)
Format : PGS
Codec ID : 144
Duration : 29 s 55 ms

b. Full Moon : Sony HDR-CX410VE zoom 55x video test #003 FHD 1080 50p 28Mbit


No2 2019-02-19 : Full Moon zoom 55x Sony HDR-CX410VE video test #003 1920 1080 50p 28Mbit

Complete name : AVCHD\BDMV\STREAM\00003.MTS
Format : BDAV
Format/Info : Blu-ray Video
File size : 80.3 MiB
Duration : 25 s 374 ms
Overall bit rate mode : Variable
Overall bit rate : 26.5 Mb/s
Maximum Overall bit rate : 28.0 Mb/s
Recorded date : 2019-02-19 22:37:12+02:00
Writing application : Sony HDR-CX410VE

Video
ID : 4113 (0x1011)
Menu ID : 1 (0x1)
Format : AVC
Format/Info : Advanced Video Codec
Format profile : High@L4.2
Format settings : CABAC / 2 Ref Frames
Format settings, CABAC : Yes
Format settings, RefFrames : 2 frames
Format settings, GOP : M=1, N=12
Codec ID : 27
Duration : 25 s 440 ms
Bit rate mode : Variable
Bit rate : 25.0 Mb/s
Maximum bit rate : 26.0 Mb/s
Width : 1 920 pixels
Height : 1 080 pixels
Display aspect ratio : 16:9
Frame rate : 50.000 FPS
Color space : YUV
Chroma subsampling : 4:2:0
Bit depth : 8 bits
Scan type : Progressive
Bits/(Pixel*Frame) : 0.241
Stream size : 75.8 MiB (94%)
IrisFNumber : 4.800000

Audio
ID : 4352 (0x1100)
Menu ID : 1 (0x1)
Format : AC-3
Format/Info : Audio Coding 3
Commercial name : Dolby Digital
Codec ID : 129
Duration : 25 s 440 ms
Bit rate mode : Constant
Bit rate : 448 kb/s
Channel(s) : 6 channels
Channel layout : L R C LFE Ls Rs
Sampling rate : 48.0 kHz
Frame rate : 31.250 FPS (1536 SPF)
Bit depth : 16 bits
Compression mode : Lossy
Stream size : 1.36 MiB (2%)
Service kind : Complete Main

Text
ID : 4608 (0x1200)
Menu ID : 1 (0x1)
Format : PGS
Codec ID : 144
Duration : 24 s 895 ms

Nikolaos Sakellaris

a. Full Moon Sony HDR-CX410VE zoom 55x video test #002 FHD1080 50p 28Mbit



No1 2019-02-19  : Full Moon zoom 55x Sony HDR-CX410VE video test #002 1920 1080 50p 28Mbit

Complete name : AVCHD\BDMV\STREAM\00002.MTS
Format : BDAV
Format/Info : Blu-ray Video
File size : 72.5 MiB
Duration : 23 s 34 ms
Overall bit rate mode : Variable
Overall bit rate : 26.4 Mb/s
Maximum Overall bit rate : 28.0 Mb/s
Recorded date : 2019-02-19 22:36:30+02:00
Writing application : Sony HDR-CX410VE

Video
ID : 4113 (0x1011)
Menu ID : 1 (0x1)
Format : AVC
Format/Info : Advanced Video Codec
Format profile : High@L4.2
Format settings : CABAC / 2 Ref Frames
Format settings, CABAC : Yes
Format settings, RefFrames : 2 frames
Format settings, GOP : M=1, N=12
Codec ID : 27
Duration : 23 s 40 ms
Bit rate mode : Variable
Bit rate : 24.9 Mb/s
Maximum bit rate : 26.0 Mb/s
Width : 1 920 pixels
Height : 1 080 pixels
Display aspect ratio : 16:9
Frame rate : 50.000 FPS
Color space : YUV
Chroma subsampling : 4:2:0
Bit depth : 8 bits
Scan type : Progressive
Bits/(Pixel*Frame) : 0.240
Stream size : 68.4 MiB (94%)
IrisFNumber : 4.800000

Audio
ID : 4352 (0x1100)
Menu ID : 1 (0x1)
Format : AC-3
Format/Info : Audio Coding 3
Commercial name : Dolby Digital
Codec ID : 129
Duration : 23 s 40 ms
Bit rate mode : Constant
Bit rate : 448 kb/s
Channel(s) : 6 channels
Channel layout : L R C LFE Ls Rs
Sampling rate : 48.0 kHz
Frame rate : 31.250 FPS (1536 SPF)
Bit depth : 16 bits
Compression mode : Lossy
Stream size : 1.23 MiB (2%)
Service kind : Complete Main

Text
ID : 4608 (0x1200)
Menu ID : 1 (0x1)
Format : PGS
Codec ID : 144
Duration : 22 s 495 ms

Nikolaos Sakellaris

b. Monastery of St. John the Theologian : Sony a3000 ilce 3000 video test #010 24Mb/s FHD 1080 50i



No2 Holy Monastery of St. John the Theologian (Agios Ioannis Theologos), Souroti, Thessaloniki, Greece
The tomb of St. Paisios is located in the Holy Hierarchy of St. John the Theologian
Sony a3000 ilce 3000 video test #010 24Mb/s FHD 1080 50i

Complete name : SONY\ILCE-3000\STREAM\00002 (4).MTS
Format : BDAV
Format/Info : Blu-ray Video
File size : 58.7 MiB
Duration : 22 s 321 ms
Overall bit rate mode : Variable
Overall bit rate : 22.1 Mb/s
Maximum Overall bit rate : 24.0 Mb/s
Recorded date : 2017-08-13 14:12:36+03:00
Writing application : Sony ILCE-3000

Video
ID : 4113 (0x1011)
Menu ID : 1 (0x1)
Format : AVC
Format/Info : Advanced Video Codec
Format profile : High@L4
Format settings : CABAC / 2 Ref Frames
Format settings, CABAC : Yes
Format settings, RefFrames : 2 frames
Format settings, picture structure : Frame
Codec ID : 27
Duration : 22 s 360 ms
Bit rate mode : Variable
Bit rate : 20.9 Mb/s
Maximum bit rate : 22.0 Mb/s
Width : 1 920 pixels
Height : 1 080 pixels
Display aspect ratio : 16:9
Frame rate : 25.000 FPS
Color space : YUV
Chroma subsampling : 4:2:0
Bit depth : 8 bits
Scan type : Interlaced
Scan type, store method : Interleaved fields
Scan order : Top Field First
Bits/(Pixel*Frame) : 0.403
Stream size : 55.7 MiB (95%)
IrisFNumber : 11.000000

Audio
ID : 4352 (0x1100)
Menu ID : 1 (0x1)
Format : AC-3
Format/Info : Audio Coding 3
Commercial name : Dolby Digital
Codec ID : 129
Duration : 22 s 368 ms
Bit rate mode : Constant
Bit rate : 256 kb/s
Channel(s) : 2 channels
Channel layout : L R
Sampling rate : 48.0 kHz
Frame rate : 31.250 FPS (1536 SPF)
Bit depth : 16 bits
Compression mode : Lossy
Stream size : 699 KiB (1%)
Service kind : Complete Main

Text
ID : 4608 (0x1200)
Menu ID : 1 (0x1)
Format : PGS
Codec ID : 144
Duration : 21 s 775 ms

Nikolaos Sakellaris

a. Monastery of St. John the Theologian : Sony a3000 ilce 3000 video test #009 24Mb/s FHD 1080 50i



No1 Holy Monastery of St. John the Theologian (Agios Ioannis Theologos), Souroti, Thessaloniki, Greece
The tomb of St. Paisios is located in the Holy Hierarchy of St. John the Theologian
Sony a3000 ilce 3000 video test #009 24Mb/s FHD 1080 50i

Complete name : SONY\ILCE-3000\STREAM\00001 (3).MTS
Format : BDAV
Format/Info : Blu-ray Video
File size : 45.8 MiB
Duration : 17 s 643 ms
Overall bit rate mode : Variable
Overall bit rate : 21.8 Mb/s
Maximum Overall bit rate : 24.0 Mb/s
Recorded date : 2017-08-13 14:12:12+03:00
Writing application : Sony ILCE-3000

Video
ID : 4113 (0x1011)
Menu ID : 1 (0x1)
Format : AVC
Format/Info : Advanced Video Codec
Format profile : High@L4
Format settings : CABAC / 2 Ref Frames
Format settings, CABAC : Yes
Format settings, RefFrames : 2 frames
Format settings, picture structure : Frame
Codec ID : 27
Duration : 17 s 680 ms
Bit rate mode : Variable
Bit rate : 20.6 Mb/s
Maximum bit rate : 22.0 Mb/s
Width : 1 920 pixels
Height : 1 080 pixels
Display aspect ratio : 16:9
Frame rate : 25.000 FPS
Color space : YUV
Chroma subsampling : 4:2:0
Bit depth : 8 bits
Scan type : Interlaced
Scan type, store method : Interleaved fields
Scan order : Top Field First
Bits/(Pixel*Frame) : 0.398
Stream size : 43.5 MiB (95%)
IrisFNumber : 16.000000

Audio
ID : 4352 (0x1100)
Menu ID : 1 (0x1)
Format : AC-3
Format/Info : Audio Coding 3
Commercial name : Dolby Digital
Codec ID : 129
Duration : 17 s 696 ms
Bit rate mode : Constant
Bit rate : 256 kb/s
Channel(s) : 2 channels
Channel layout : L R
Sampling rate : 48.0 kHz
Frame rate : 31.250 FPS (1536 SPF)
Bit depth : 16 bits
Compression mode : Lossy
Stream size : 553 KiB (1%)
Service kind : Complete Main

Text
ID : 4608 (0x1200)
Menu ID : 1 (0x1)
Format : PGS
Codec ID : 144
Duration : 17 s 95 ms

Nikolaos Sakellaris

c. View from the roof of White Tower Sony a3000 ilce 3000 video test #006 24Mb/s FHD 1080 50i




No3 View from the roof of White Tower of Thessaloniki, Greece
Sony a3000 ilce 3000 video test #006 24Mb/s FHD 1080 50i

Complete name : SONY\ILCE-3000\STREAM\00011 (2).MTS
Format : BDAV
Format/Info : Blu-ray Video
File size : 22.6 MiB
Duration : 8 s 820 ms
Overall bit rate mode : Variable
Overall bit rate : 21.4 Mb/s
Maximum Overall bit rate : 24.0 Mb/s
Recorded date : 2017-08-13 17:54:27+03:00
Writing application : Sony ILCE-3000

Video
ID : 4113 (0x1011)
Menu ID : 1 (0x1)
Format : AVC
Format/Info : Advanced Video Codec
Format profile : High@L4
Format settings : CABAC / 2 Ref Frames
Format settings, CABAC : Yes
Format settings, RefFrames : 2 frames
Format settings, picture structure : Frame
Codec ID : 27
Duration : 8 s 840 ms
Bit rate mode : Variable
Bit rate : 20.3 Mb/s
Maximum bit rate : 22.0 Mb/s
Width : 1 920 pixels
Height : 1 080 pixels
Display aspect ratio : 16:9
Frame rate : 25.000 FPS
Color space : YUV
Chroma subsampling : 4:2:0
Bit depth : 8 bits
Scan type : Interlaced
Scan type, store method : Interleaved fields
Scan order : Top Field First
Bits/(Pixel*Frame) : 0.392
Stream size : 21.4 MiB (95%)
IrisFNumber : 16.000000

Audio
ID : 4352 (0x1100)
Menu ID : 1 (0x1)
Format : AC-3
Format/Info : Audio Coding 3
Commercial name : Dolby Digital
Codec ID : 129
Duration : 8 s 864 ms
Bit rate mode : Constant
Bit rate : 256 kb/s
Channel(s) : 2 channels
Channel layout : L R
Sampling rate : 48.0 kHz
Frame rate : 31.250 FPS (1536 SPF)
Bit depth : 16 bits
Compression mode : Lossy
Stream size : 277 KiB (1%)
Service kind : Complete Main

Text
ID : 4608 (0x1200)
Menu ID : 1 (0x1)
Format : PGS
Codec ID : 144
Duration : 8 s 255 ms

b. View from the roof of White Tower Sony a3000 ilce 3000 video test #005 24Mb/s FHD 1080 50i



No2 View from the roof of White Tower of Thessaloniki, Greece
Sony a3000 ilce 3000 video test #005 24Mb/s FHD 1080 50i

Complete name : SONY\ILCE-3000\STREAM\00010 (2).MTS
Format : BDAV
Format/Info : Blu-ray Video
File size : 33.5 MiB
Duration : 12 s 960 ms
Overall bit rate mode : Variable
Overall bit rate : 21.6 Mb/s
Maximum Overall bit rate : 24.0 Mb/s
Recorded date : 2017-08-13 17:51:31+03:00
Writing application : Sony ILCE-3000

Video
ID : 4113 (0x1011)
Menu ID : 1 (0x1)
Format : AVC
Format/Info : Advanced Video Codec
Format profile : High@L4
Format settings : CABAC / 2 Ref Frames
Format settings, CABAC : Yes
Format settings, RefFrames : 2 frames
Format settings, picture structure : Frame
Codec ID : 27
Duration : 13 s 0 ms
Bit rate mode : Variable
Bit rate : 20.5 Mb/s
Maximum bit rate : 22.0 Mb/s
Width : 1 920 pixels
Height : 1 080 pixels
Display aspect ratio : 16:9
Frame rate : 25.000 FPS
Color space : YUV
Chroma subsampling : 4:2:0
Bit depth : 8 bits
Scan type : Interlaced
Scan type, store method : Interleaved fields
Scan order : Top Field First
Bits/(Pixel*Frame) : 0.396
Stream size : 31.8 MiB (95%)
IrisFNumber : 13.000000

Audio
ID : 4352 (0x1100)
Menu ID : 1 (0x1)
Format : AC-3
Format/Info : Audio Coding 3
Commercial name : Dolby Digital
Codec ID : 129
Duration : 13 s 24 ms
Bit rate mode : Constant
Bit rate : 256 kb/s
Channel(s) : 2 channels
Channel layout : L R
Sampling rate : 48.0 kHz
Frame rate : 31.250 FPS (1536 SPF)
Bit depth : 16 bits
Compression mode : Lossy
Stream size : 407 KiB (1%)
Service kind : Complete Main

Text
ID : 4608 (0x1200)
Menu ID : 1 (0x1)
Format : PGS
Codec ID : 144
Duration : 12 s 415 ms

a. View from the roof of White Tower Sony a3000 ilce 3000 video test #004 24Mb/s FHD 1080 50i




No1 View from the roof of White Tower of Thessaloniki, Greece
Sony a3000 ilce 3000 video test #004 24Mb/s FHD 1080 50i

Complete name : SONY\ILCE-3000\STREAM\00009 (2).MTS
Format : BDAV
Format/Info : Blu-ray Video
File size : 24.1 MiB
Duration : 9 s 361 ms
Overall bit rate mode : Variable
Overall bit rate : 21.6 Mb/s
Maximum Overall bit rate : 24.0 Mb/s
Recorded date : 2017-08-13 17:49:45+03:00
Writing application : Sony ILCE-3000

Video
ID : 4113 (0x1011)
Menu ID : 1 (0x1)
Format : AVC
Format/Info : Advanced Video Codec
Format profile : High@L4
Format settings : CABAC / 2 Ref Frames
Format settings, CABAC : Yes
Format settings, RefFrames : 2 frames
Format settings, picture structure : Frame
Codec ID : 27
Duration : 9 s 360 ms
Bit rate mode : Variable
Bit rate : 20.5 Mb/s
Maximum bit rate : 22.0 Mb/s
Width : 1 920 pixels
Height : 1 080 pixels
Display aspect ratio : 16:9
Frame rate : 25.000 FPS
Color space : YUV
Chroma subsampling : 4:2:0
Bit depth : 8 bits
Scan type : Interlaced
Scan type, store method : Interleaved fields
Scan order : Top Field First
Bits/(Pixel*Frame) : 0.395
Stream size : 22.8 MiB (95%)
IrisFNumber : 16.000000

Audio
ID : 4352 (0x1100)
Menu ID : 1 (0x1)
Format : AC-3
Format/Info : Audio Coding 3
Commercial name : Dolby Digital
Codec ID : 129
Duration : 9 s 376 ms
Bit rate mode : Constant
Bit rate : 256 kb/s
Channel(s) : 2 channels
Channel layout : L R
Sampling rate : 48.0 kHz
Frame rate : 31.250 FPS (1536 SPF)
Bit depth : 16 bits
Compression mode : Lossy
Stream size : 293 KiB (1%)
Service kind : Complete Main

Text
ID : 4608 (0x1200)
Menu ID : 1 (0x1)
Format : PGS
Codec ID : 144
Duration : 8 s 775 ms

c. Inside The White Tower of Thessaloniki Sony a3000 ilce 3000 video test #008 24Mb/s FHD 1080 50i



No3 Inside The White Tower of Thessaloniki, Greece
Sony a3000 ilce 3000 video test #008 24Mb/s FHD 1080 50i

Complete name : SONY\ILCE-3000\STREAM\00015 (2).MTS
Format : BDAV
Format/Info : Blu-ray Video
File size : 33.8 MiB
Duration : 12 s 961 ms
Overall bit rate mode : Variable
Overall bit rate : 21.8 Mb/s
Maximum Overall bit rate : 24.0 Mb/s
Recorded date : 2017-08-13 18:10:50+03:00
Writing application : Sony ILCE-3000

Video
ID : 4113 (0x1011)
Menu ID : 1 (0x1)
Format : AVC
Format/Info : Advanced Video Codec
Format profile : High@L4
Format settings : CABAC / 2 Ref Frames
Format settings, CABAC : Yes
Format settings, RefFrames : 2 frames
Format settings, picture structure : Frame
Codec ID : 27
Duration : 13 s 0 ms
Bit rate mode : Variable
Bit rate : 20.7 Mb/s
Maximum bit rate : 22.0 Mb/s
Width : 1 920 pixels
Height : 1 080 pixels
Display aspect ratio : 16:9
Frame rate : 25.000 FPS
Color space : YUV
Chroma subsampling : 4:2:0
Bit depth : 8 bits
Scan type : Interlaced
Scan type, store method : Interleaved fields
Scan order : Top Field First
Bits/(Pixel*Frame) : 0.399
Stream size : 32.0 MiB (95%)
IrisFNumber : 3.500000

Audio
ID : 4352 (0x1100)
Menu ID : 1 (0x1)
Format : AC-3
Format/Info : Audio Coding 3
Commercial name : Dolby Digital
Codec ID : 129
Duration : 13 s 24 ms
Bit rate mode : Constant
Bit rate : 256 kb/s
Channel(s) : 2 channels
Channel layout : L R
Sampling rate : 48.0 kHz
Frame rate : 31.250 FPS (1536 SPF)
Bit depth : 16 bits
Compression mode : Lossy
Stream size : 407 KiB (1%)
Service kind : Complete Main

Text
ID : 4608 (0x1200)
Menu ID : 1 (0x1)
Format : PGS
Codec ID : 144
Duration : 12 s 415 ms

b. Inside The White Tower of Thessaloniki Sony a3000 ilce 3000 video test #007 24Mb/s FHD 1080 50i



No2 Inside The White Tower of Thessaloniki, Greece
Sony a3000 ilce 3000 video test #007 24Mb/s FHD 1080 50i

Complete name : SONY\ILCE-3000\STREAM\00014 (2).MTS
Format : BDAV
Format/Info : Blu-ray Video
File size : 37.6 MiB
Duration : 14 s 491 ms
Overall bit rate mode : Variable
Overall bit rate : 21.7 Mb/s
Maximum Overall bit rate : 24.0 Mb/s
Recorded date : 2017-08-13 18:10:30+03:00
Writing application : Sony ILCE-3000

Video
ID : 4113 (0x1011)
Menu ID : 1 (0x1)
Format : AVC
Format/Info : Advanced Video Codec
Format profile : High@L4
Format settings : CABAC / 2 Ref Frames
Format settings, CABAC : Yes
Format settings, RefFrames : 2 frames
Format settings, picture structure : Frame
Codec ID : 27
Duration : 14 s 560 ms
Bit rate mode : Variable
Bit rate : 20.6 Mb/s
Maximum bit rate : 22.0 Mb/s
Width : 1 920 pixels
Height : 1 080 pixels
Display aspect ratio : 16:9
Frame rate : 25.000 FPS
Color space : YUV
Chroma subsampling : 4:2:0
Bit depth : 8 bits
Scan type : Interlaced
Scan type, store method : Interleaved fields
Scan order : Top Field First
Bits/(Pixel*Frame) : 0.397
Stream size : 35.8 MiB (95%)
IrisFNumber : 3.500000

Audio
ID : 4352 (0x1100)
Menu ID : 1 (0x1)
Format : AC-3
Format/Info : Audio Coding 3
Commercial name : Dolby Digital
Codec ID : 129
Duration : 14 s 560 ms
Bit rate mode : Constant
Bit rate : 256 kb/s
Channel(s) : 2 channels
Channel layout : L R
Sampling rate : 48.0 kHz
Frame rate : 31.250 FPS (1536 SPF)
Bit depth : 16 bits
Compression mode : Lossy
Stream size : 455 KiB (1%)
Service kind : Complete Main

Text
ID : 4608 (0x1200)
Menu ID : 1 (0x1)
Format : PGS
Codec ID : 144
Duration : 13 s 975 ms

a. Inside The White Tower of Thessaloniki Sony a3000 ilce 3000 video test #003 24Mb/s FHD 1080 50i



No1 Inside The White Tower of Thessaloniki, Greece
Sony a3000 ilce 3000 video test #003 24Mb/s FHD 1080 50i

Complete name : SONY\ILCE-3000\STREAM\00006 (2).MTS
Format : BDAV
Format/Info : Blu-ray Video
File size : 28.0 MiB
Duration : 10 s 891 ms
Overall bit rate mode : Variable
Overall bit rate : 21.5 Mb/s
Maximum Overall bit rate : 24.0 Mb/s
Recorded date : 2017-08-13 17:36:29+03:00
Writing application : Sony ILCE-3000

Video
ID : 4113 (0x1011)
Menu ID : 1 (0x1)
Format : AVC
Format/Info : Advanced Video Codec
Format profile : High@L4
Format settings : CABAC / 2 Ref Frames
Format settings, CABAC : Yes
Format settings, RefFrames : 2 frames
Format settings, picture structure : Frame
Codec ID : 27
Duration : 10 s 920 ms
Bit rate mode : Variable
Bit rate : 20.4 Mb/s
Maximum bit rate : 22.0 Mb/s
Width : 1 920 pixels
Height : 1 080 pixels
Display aspect ratio : 16:9
Frame rate : 25.000 FPS
Color space : YUV
Chroma subsampling : 4:2:0
Bit depth : 8 bits
Scan type : Interlaced
Scan type, store method : Interleaved fields
Scan order : Top Field First
Bits/(Pixel*Frame) : 0.394
Stream size : 26.6 MiB (95%)
IrisFNumber : 3.500000

Audio
ID : 4352 (0x1100)
Menu ID : 1 (0x1)
Format : AC-3
Format/Info : Audio Coding 3
Commercial name : Dolby Digital
Codec ID : 129
Duration : 10 s 944 ms
Bit rate mode : Constant
Bit rate : 256 kb/s
Channel(s) : 2 channels
Channel layout : L R
Sampling rate : 48.0 kHz
Frame rate : 31.250 FPS (1536 SPF)
Bit depth : 16 bits
Compression mode : Lossy
Stream size : 342 KiB (1%)
Service kind : Complete Main

Text
ID : 4608 (0x1200)
Menu ID : 1 (0x1)
Format : PGS
Codec ID : 144
Duration : 10 s 335 ms

Genova città deserta Seconda parte rimaniamo a casa Μένουμε Σπίτι και εμείς

rimaniamo a casa Seconda parte Genova città deserta #StayHome Γένοβα δεύτερο μέρος Μένουμε Σπίτι και εμείς 2nd Part desert Genoa Geno...