Showing posts with label Sony Sal 75300 75-300mm. Show all posts
Showing posts with label Sony Sal 75300 75-300mm. Show all posts

Half Moon Sony SLT-A33 + Sony SAL75300 #001 1080 25fps




Half Moon
Camera : Sony SLT-A33
Lens : Sony SAL75300 @ 300mm
video test  #001
FHD 1080 25fps

Complete name : AVCHD\BDMV\STREAM\00175.MTS
Format : BDAV
Format/Info : Blu-ray Video
File size : 126 MiB
Duration : 1 min 2 s
Overall bit rate mode : Variable
Overall bit rate : 17.0 Mb/s
Maximum Overall bit rate : 18.0 Mb/s
Recorded date : 2019-05-12 01:12:15+02:00
Writing application : Sony SLT-A33

Video
ID : 4113 (0x1011)
Menu ID : 1 (0x1)
Format : AVC
Format/Info : Advanced Video Codec
Format profile : High@L4
Format settings : CABAC / 2 Ref Frames
Format settings, CABAC : Yes
Format settings, Reference frames : 2 frames
Format settings, GOP : M=2, N=13
Codec ID : 27
Duration : 1 min 2 s
Bit rate mode : Variable
Bit rate : 16.0 Mb/s
Width : 1 920 pixels
Height : 1 080 pixels
Display aspect ratio : 16:9
Frame rate : 25.000 FPS
Color space : YUV
Chroma subsampling : 4:2:0
Bit depth : 8 bits
Scan type : Interlaced
Scan type, store method : Separated fields
Scan order : Top Field First
Bits/(Pixel*Frame) : 0.309
Stream size : 119 MiB (94%)
IrisFNumber : 5.600000

Audio
ID : 4352 (0x1100)
Menu ID : 1 (0x1)
Format : AC-3
Format/Info : Audio Coding 3
Commercial name : Dolby Digital
Codec ID : 129
Duration : 1 min 2 s
Bit rate mode : Constant
Bit rate : 256 kb/s
Channel(s) : 2 channels
Channel layout : L R
Sampling rate : 48.0 kHz
Frame rate : 31.250 FPS (1536 SPF)
Bit depth : 16 bits
Compression mode : Lossy
Delay relative to video : -80 ms
Stream size : 1.90 MiB (2%)
Service kind : Complete Main

Text
ID : 4608 (0x1200)
Menu ID : 1 (0x1)
Format : PGS
Codec ID : 144
Duration : 1 min 1 s
Delay relative to video : -80 ms

Full Moon 21 March 2019 : SONY SLT-a58



Full Moon  21 March 2019
Camera SONY  SLT-a58  SteadyShot  On - MF Manual Shoting ISO 100 f11 Digital Zoom 2x
Lens Sony Sal 75300 75-300mm

Complete name : AVCHD\BDMV\STREAM\00035.MTS
Format : BDAV
Format/Info : Blu-ray Video
File size : 83.3 MiB
Duration : 31 s 140 ms
Overall bit rate mode : Variable
Overall bit rate : 22.4 Mb/s
Maximum Overall bit rate : 24.0 Mb/s
Recorded date : 2019-03-21 21:51:13+02:00
Writing application : Sony SLT-A58

Video
ID : 4113 (0x1011)
Menu ID : 1 (0x1)
Format : AVC
Format/Info : Advanced Video Codec
Format profile : High@L4
Format settings : CABAC / 2 Ref Frames
Format settings, CABAC : Yes
Format settings, RefFrames : 2 frames
Format settings, GOP : M=2, N=13
Codec ID : 27
Duration : 31 s 120 ms
Bit rate mode : Variable
Bit rate : 21.3 Mb/s
Maximum bit rate : 22.0 Mb/s
Width : 1 920 pixels
Height : 1 080 pixels
Display aspect ratio : 16:9
Frame rate : 25.000 FPS
Color space : YUV
Chroma subsampling : 4:2:0
Bit depth : 8 bits
Scan type : Interlaced
Scan type, store method : Separated fields
Scan order : Top Field First
Bits/(Pixel*Frame) : 0.410
Stream size : 78.9 MiB (95%)
IrisFNumber : 8.000000

Audio
ID : 4352 (0x1100)
Menu ID : 1 (0x1)
Format : AC-3
Format/Info : Audio Coding 3
Commercial name : Dolby Digital
Codec ID : 129
Duration : 31 s 200 ms
Bit rate mode : Constant
Bit rate : 256 kb/s
Channel(s) : 2 channels
Channel layout : L R
Sampling rate : 48.0 kHz
Frame rate : 31.250 FPS (1536 SPF)
Bit depth : 16 bits
Compression mode : Lossy
Delay relative to video : -80 ms
Stream size : 975 KiB (1%)
Service kind : Complete Main

Text
ID : 4608 (0x1200)
Menu ID : 1 (0x1)
Format : PGS
Codec ID : 144
Duration : 30 s 615 ms
Delay relative to video : -80 ms

Genova città deserta Seconda parte rimaniamo a casa Μένουμε Σπίτι και εμείς

rimaniamo a casa Seconda parte Genova città deserta #StayHome Γένοβα δεύτερο μέρος Μένουμε Σπίτι και εμείς 2nd Part desert Genoa Geno...