Showing posts with label Vivitar DVR 528. Show all posts
Showing posts with label Vivitar DVR 528. Show all posts

Vivitar DVR 528 Video Test 02 1280x720 20fps 8.83 Mb/s



Complete name : SUNP0002.AVI
Format : AVI
Format/Info : Audio Video Interleave
File size : 21.7 MiB
Duration : 20 s 619 ms
Overall bit rate : 8 835 kb/s

Video
ID : 0
Format : JPEG
Codec ID : MJPG
Duration : 20 s 619 ms
Source duration : 20 s 418 ms
Bit rate : 12.9 Mb/s
Width : 1 280 pixels
Height : 720 pixels
Display aspect ratio : 16:9
Frame rate : 19.933 FPS
Color space : YUV
Chroma subsampling : 4:2:2
Bit depth : 8 bits
Scan type : Progressive
Compression mode : Lossy
Bits/(Pixel*Frame) : 0.703
Stream size : 31.4 MiB

Audio
ID : 1
Format : PCM
Format settings : Little / Signed
Codec ID : 1
Duration : 20 s 387 ms
Bit rate mode : Constant
Bit rate : 352.8 kb/s
Channel(s) : 1 channel
Sampling rate : 22.05 kHz
Bit depth : 16 bits
Stream size : 878 KiB (4%)
Alignment : Aligned on interleaves
Interleave, duration : 46 ms (0.93 video frame)

Vivitar DVR 528 Video Test 01 1280x720 20fps 10.5 Mb/s




Vivitar DVR 528 Video Test 1280x720 20fps 10.5 Mb/s

Complete name : SUNP0001.AVI
Format : AVI
Format/Info : Audio Video Interleave
File size : 38.4 MiB
Duration : 30 s 789 ms
Overall bit rate : 10.5 Mb/s

Video
ID : 0
Format : JPEG
Codec ID : MJPG
Duration : 30 s 789 ms
Source duration : 30 s 588 ms
Bit rate : 15.2 Mb/s
Width : 1 280 pixels
Height : 720 pixels
Display aspect ratio : 16:9
Frame rate : 19.942 FPS
Color space : YUV
Chroma subsampling : 4:2:2
Bit depth : 8 bits
Scan type : Progressive
Compression mode : Lossy
Bits/(Pixel*Frame) : 0.825
Stream size : 55.3 MiB

Audio
ID : 1
Format : PCM
Format settings : Little / Signed
Codec ID : 1
Duration : 30 s 557 ms
Bit rate mode : Constant
Bit rate : 352.8 kb/s
Channel(s) : 1 channel
Sampling rate : 22.05 kHz
Bit depth : 16 bits
Stream size : 1.29 MiB (3%)
Alignment : Aligned on interleaves
Interleave, duration : 46 ms (0.93 video frame)

Genova città deserta Seconda parte rimaniamo a casa Μένουμε Σπίτι και εμείς

rimaniamo a casa Seconda parte Genova città deserta #StayHome Γένοβα δεύτερο μέρος Μένουμε Σπίτι και εμείς 2nd Part desert Genoa Geno...