Maxtor HX-M101TCB M3 Portable 1TB HDD NM15KLP3 Disassembled

Maxtor HX-M101TCB M3 Portable 1TB HDD NM15KLP3 Disassembled


NikolaosSakellaris videos

Maxtor Model : HX-M101TCB Disassembled
M3 Portable 1TB HDD NM15KLP3 inside SEAGATE Mobile HDD 1TB 1RK172-568 WL1H2WQT 5000C500BDCFFFAE ST1000LM035 SBM3 65686100796243FFN6039HCA0GFNKN00NC000FT0Z00 HA65C47G65TVSA45JS2JD53PK3HU4CB2 NAA4S1C9
EAN 7636490078460
Weight 151g
Dimensions (W x L x H) 82 x 118.2 x 19.9mm
Windows 10/8/7/Vista, Mac OS X 10.4.8 or later
SuperSpeed USB 3.0 (Max): 4.8Gb/s
Temperature (operating) 5° to 40°C
Temperature (non-operating) –20° to 65°C
Included software AutoBackup, Secure Drive and SecretZone
with Camera : SANYO CG100 iso 100 mode A autofocus
Subscribe ► and don't forget the bell 🔔 to turn on post notifications!✔️
#Maxtor #Larissa #CG100 #SANYO
https://instagram.com/sakellarisnikolaos/ ◄ Official Instagram✔️
https://twitter.com/SakellarisNiko ◄ Official Twitter✔️
https://facebook.com/nikolaos.sakellaris/ ◄ Official Facebook✔️
https://www.tubebuddy.com/NikolaosSakellaris ◄ try TubeBuddy✔️
https://www.patreon.com/sakellarisnikolaos ◄ Patreon✔️
https://youtube.com/c/NikolaosSakellaris ◄ Official Youtube✔️
https://video-photo-blog.blogspot.com/ ◄ Viphoblog✔️
http://www.snn.gr/info_en.html ◄ About: me✔️
🎥 VIDEO by Nikolaos Sakellaris
MUSIC from AudioLibrary
🎵 Song: Dancing Star
🎶 Artist: Aakash Gandhi

Κραυγές Βίας ( Ενδοοικογενειακή Βία ) Cries of Violence (Domestic Violence)

Saturn 13 May 2020 OM-D E-M10 + Paragon 500mm f/8 @ f/11 + 2x SUN AUTO TELE-UP +4x crop 1st attempt


NikolaosSakellaris videos

Cries of Violence (Domestic Violence) Ενδοοικογενειακή Βία (κραυγές βίας) Σε κάθε περίοδο κρίσης τα κρούσματα βίας αυξάνονται.
Γνωρίζουμε ότι σε κάθε περίοδο κρίσης καθώς και σε χρονικά διαστήματα όπου το ζευγάρι περνάει περισσότερο χρόνο μαζί, τα κρούσματα βίας αυξάνονται.
Όλα τα θύματα της ενδοοικογενειακής βίας μπορεί να υποστούν σωματικά και συναισθηματικά τραύματα.
Εκείνος που ενδεχομένως θα γίνει πιο επιθετικός είναι ο άντρας που ήδη επέλεξε αυτό τον τρόπο να σχετίζεται με τη σύζυγο ή σύντροφό του.
Λόγω των διαφορών στη σωματική δύναμη μεταξύ αντρών και γυναικών, οι γυναίκες είναι πιθανότερο να υποστούν επίθεση με σοβαρά σωματικά τραύματα από τους άντρες.
Η συναισθηματική κακοποίηση δεν προκαλεί γδαρσίματα και μελανιές όπως η σωματική κακοποίηση οπότε τα σημάδια της είναι δύσκολα να αναγνωριστούν και να αντιμετωπιστούν.
Η συναισθηματική κακοποίηση μπορεί να τραυματίσει σημαντικά την ψυχική υγεία του θύματος.
Το βίντεο έχει σκοπό με τις κραυγές γυναικών να αναδείξει τη βία που υπόκειται η γυναίκα σωματικά και ψυχικά μέσα στην οικογένεια από τον κακοποιητικό της σύντροφο.
#Ενδοοικογενειακή #βια Subscribe ► and don't forget the bell 🔔 to turn on post notifications!✔️
@sakellarisnikolaos @nikolaossakellaris
https://instagram.com/sakellarisnikolaos/ ◄ Official Instagram✔️
https://twitter.com/SakellarisNiko ◄ Official Twitter✔️
https://facebook.com/nikolaos.sakellaris/ ◄ Official Facebook✔️
https://www.patreon.com/sakellarisnikolaos ◄ Patreon✔️
https://youtube.com/c/NikolaosSakellaris ◄ Official Youtube✔️
https://video-photo-blog.blogspot.com/ ◄ Viphoblog✔️
http://www.snn.gr/info_en.html ◄ About: me✔️

Chapters:
0:00 Εισαγωγή
0:12 Σοφία Φαρφαρατζή
0:40 Ειρήνη Μανωλοπούλου
1:10 Χάιδω Ιωάννου
1:50 Γιούλα Δίρβα
2:38 Μαρία Γυφτονικολού
3:20 Στέλα Λιάκου
3:50 Βάσω Πιπελέ
4:08 Χρύσα Μπαλή
5:37 Χάιδω Ιωάννου
7:11 Στελίνα
7:20 Νικόλαος Ζιαβλιάκης
9:40 Νικόλαος Σακελλάρης
10:11 Κομμένες αστείες σκηνές

Σκηνοθετική επιμέλεια : Χρύσα Μπαλή
Βιντεοσκόπηση & σύνθεση : Νικόλαος Σακελλάρης
Μουσική : Jesse Gallagher τίτλος Satya Yuga https://www.youtube.com/user/nightimegallagher
Από τις ομάδες
Κοινωνικών επιστημών & ψυχικής υγείας -Γονέων -Εκπαιδευτικών
στα πλαίσια του σεμιναρίου
Ηγεσία ομάδας και οργάνωση του χρόνου της Διονυσίας Τριπολίτου
στο Επιμελητήριο Λάρισας για το 2019-2020
Έχει δημιουργηθεί στα πλαίσια του σεμιναρίου 100 ωρών της Διονυσίας Τριπολίτου.
Επιμέλεια κείμενο : Χρύσα Μπαλή Μαστοροδήμου (Νοσηλεύτρια)

Sony DVP-SR760H DVD Disassembled ♻

Sony DVP-SR760H DVD Disassembled ♻


NikolaosSakellaris videos

This video is for Sony DVP-SR760H DVD and how it is Disassembled
RF05W0521000A Y1537043669 EAN: 4905524842074
Subscribe and don't forget the bell 🔔 to turn on post notifications!✔️
@sakellarisnikolaos @nikolaossakellaris
https://instagram.com/sakellarisnikolaos/ ◄ Official Instagram✔️
https://twitter.com/SakellarisNiko ◄ Official Twitter✔️
https://facebook.com/nikolaos.sakellaris/ ◄ Official Facebook✔️
https://www.patreon.com/sakellarisnikolaos ◄ Patreon✔️
https://youtube.com/c/NikolaosSakellaris ◄ Official Youtube✔️
https://video-photo-blog.blogspot.com/ ◄ Viphoblog✔️
http://www.snn.gr/info_en.html ◄ About: me✔️

Sony DVP-SR760H Colour Black
USB HDMI Remote Control Progressive Scan Coaxial Output
Dimensions WxDxH (mm) 270 x 209 x 39 Weight 1KG
Power Consumption- Normal Use 10w
filmed with Sanyo Xacti VPC-CG100 1080 25p mf 5cm fixed zoom

Video2 Wind works for FIBERS Papanastasiou 84 Larissa Samsung HMX20

Video2 Wind works for FIBERS Papanastasiou 84 Larissa Samsung HMX20


NikolaosSakellaris videos

Part2 Wind Works for FIBERS
Papanastasiou 84 Larissa
HMX20 Samsung video test 2


Complete name : SAMSUNG\HMX20C\VIDEO\HDV_0192.MP4
Format : MPEG-4 Format profile : Base Media / Version 2 Codec ID : mp42 (mp42/avc1) File size : 133 MiB Duration : 1 min 18 s Overall bit rate mode : Variable Overall bit rate : 14.2 Mb/s Movie_More : SKY02 Digital Camera Encoded date : UTC 2018-08-07 12:42:34 Origin : Digital Camera TAGS : UNG DIGITAL MOVIE
Video ID : 1 Format : AVC Format/Info : Advanced Video Codec Format profile : Main@L4
Format settings : 2 Ref Frames Format settings, CABAC : No Format settings, Reference frames : 2 frames Codec ID : avc1 Codec ID/Info : Advanced Video Coding Duration : 1 min 18 s Bit rate : 14.1 Mb/s Width : 1 920 pixels Height : 1 080 pixels Display aspect ratio : 16:9 Frame rate mode : Constant Frame rate : 50.000 FPS Original frame rate : 49.950 (50000/1001) FPS Color space : YUV Chroma subsampling : 4:2:0 Bit depth : 8 bits Scan type : Interlaced Scan type, store method : Separated fields Scan order : Top Field First Bits/(Pixel*Frame) : 0.136 Stream size : 132 MiB (99%) Language : English Codec configuration box : avcC
Audio ID : 2 Format : AAC LC Format/Info : Advanced Audio Codec Low Complexity Codec ID : mp4a-40-2
Duration : 1 min 18 s Bit rate mode : Variable Bit rate : 128 kb/s Maximum bit rate : 192 kb/s Channel(s) : 2 channels Channel layout : L R Sampling rate : 48.0 kHz Frame rate : 46.875 FPS (1024 SPF) Compression mode : Lossy Stream size : 1.19 MiB (1%) Language : English

ISS International Space Station NASA 21:42 15 05 2020 Larissa Greece my 2nd attempt to film it

ISS International Space Station NASA 21:42 15 05 2020 Larissa Greece my 2nd attempt to film it


NikolaosSakellaris videos

ISS 21:42 over Larissa Greece
International Space Station NASA
my 2nd attempt to film it
ISO 6400 SHUTTER 1/30 f/1.7
Camera : Xiaomi YI M1 4k UHD
Lens: Canon FL 50mm f/1.4 @ 1.7
FD adapted to M4/3 MFT

Don’t forget to click the bell to turn on post notifications!

Nikolaos Instagram: https://www.instagram.com/sakellarisnikolaos/
Twitter: https://twitter.com/SakellarisNiko
Facebook: https://www.facebook.com/nikolaos.sakellaris/
Blog: https://video-photo-blog.blogspot.com/

Complete name : XIAOMI\YI M1\VIDEO\P5150144.MP4
Format : MPEG-4 Format profile : Base Media / Version 2 Codec ID : mp42 (mp42/avc1) File size : 1.30 GiB Duration : 2 min 27 s Overall bit rate mode : Variable Overall bit rate : 75.7 Mb/s Encoded date : UTC 2020-05-15 21:42:33
Video ID : 1 Format : AVC Format/Info : Advanced Video Codec
Format profile : High@L5.1 Format settings : 1 Ref Frames Format settings, CABAC : No Format settings, RefFrames : 1 frame Format settings, GOP : M=1, N=15 Codec ID : avc1 Codec ID/Info : Advanced Video Coding Duration : 2 min 27 s Bit rate : 75.5 Mb/s Width : 3 840 pixels Height : 2 160 pixels Display aspect ratio : 16:9 Frame rate mode : Constant Frame rate : 29.970 (30000/1001) FPS Color space : YUV Chroma subsampling : 4:2:0 Bit depth : 8 bits Scan type : Progressive Bits/(Pixel*Frame) : 0.304 Stream size : 1.29 GiB (100%) Language : English Color range : Full Color primaries : BT.601 NTSC Transfer characteristics : BT.709 Matrix coefficients : BT.601 Menus : 3 Codec configuration box : avcC
Audio
ID : 2 Format : AAC LC Format/Info : Advanced Audio Codec Low Complexity Codec ID : mp4a-40-2
Duration : 2 min 27 s Source duration : 2 min 27 s Bit rate mode : Variable Bit rate : 128 kb/s Maximum bit rate : 192 kb/s Channel(s) : 2 channels Channel layout : L R Sampling rate : 48.0 kHz Frame rate : 46.875 FPS (1024 SPF) Compression mode : Lossy Stream size : 2.23 MiB (0%) Source stream size : 2.23 MiB (0%) Language : English

Pink Evening Primrose, Pink Ladies, Apple iPhone 5 video test #002 1080 30p

Pink Evening Primrose, Pink Ladies, Apple iPhone 5 video test #002 1080 30p


NikolaosSakellaris videos

video test #002 Bit rate : 12.8 Mb/s
Pink Evening Primrose, Pink Ladies
Apple iPhone 5

Don’t forget to click the bell to turn on post notifications!

Nikolaos Instagram: https://www.instagram.com/sakellarisnikolaos/
Twitter: https://twitter.com/SakellarisNiko
Facebook: https://www.facebook.com/nikolaos.sakellaris/
Blog: https://video-photo-blog.blogspot.com/

Complete name : Apple\iPhone 5\IMG_0123.MOV
Format : MPEG-4 Format profile : QuickTime Codec ID : qt 0000.00 (qt ) File size : 106 MiB Duration : 1 min 5 s Overall bit rate : 13.6 Mb/s Encoded date : UTC 2020-05-13 15:16:34 Writing library : Apple QuickTime com.apple.quicktime.location.ISO6709 : +39.6342+022.4138+081.759/ com.apple.quicktime.make : Apple com.apple.quicktime.model : iPhone 5 com.apple.quicktime.software : 10.3.4 com.apple.quicktime.creationdate : 2020-05-13T18:16:34+0300
Video
ID : 1 Format : AVC Format/Info : Advanced Video Codec
Format profile : High@L4.1 Format settings : CABAC / 1 Ref Frames Format settings, CABAC : Yes Format settings, Reference frames : 1 frame Format settings, GOP : M=1, N=30 Codec ID : avc1 Codec ID/Info : Advanced Video Coding Duration : 1 min 5 s Bit rate : 13.5 Mb/s Width : 1 920 pixels Height : 1 080 pixels Display aspect ratio : 16:9 Frame rate mode : Variable Frame rate : 29.970 (29970/1000) FPS Minimum frame rate : 28.571 FPS Maximum frame rate : 31.579 FPS Color space : YUV Chroma subsampling : 4:2:0 Bit depth : 8 bits Scan type : Progressive Bits/(Pixel*Frame) : 0.218 Stream size : 105 MiB (99%) Title : Core Media Video Color range : Limited Color primaries : BT.709 Transfer characteristics : BT.709 Matrix coefficients : BT.709 Codec configuration box : avcC
Audio
ID : 2 Format : AAC LC Format/Info : Advanced Audio Codec Low Complexity Codec ID : mp4a-40-2
Duration : 1 min 5 s Source duration : 1 min 5 s Bit rate mode : Constant Bit rate : 64.0 kb/s Channel(s) : 1 channel Channel layout : C Sampling rate : 44.1 kHz Frame rate : 43.066 FPS (1024 SPF) Compression mode : Lossy Stream size : 504 KiB (0%) Source stream size : 504 KiB (0%) Title : Core Media Audio
Other #1 Type : meta Duration : 1 min 5 s Bit rate mode : Constant
Other #2 Type : meta Duration : 1 min 5 s Bit rate mode : Constant

Mars, May 13, 2020 OM-D E-M10 + Paragon 500mm f/8 @ f/11 + 2x SUN AUTO TELE-UP +4x crop 1st attempt

Mars, May 13, 2020 OM-D E-M10 + Paragon 500mm f/8 @ f/11 + 2x SUN AUTO TELE-UP +4x crop 1st attempt


NikolaosSakellaris videos

Planet Mars May 13, 2020 from Greece Larissa
Camera Olympus OM-D E-M10
Lens PARAGON f/8 500mm Ø72 T2 - @ f/11
Movie-.I,S. OFF Focal Length INFO 500mm 1000 at M4/3 sensor
SUN AUTO TELE-UP 2X Converter
Fn2 4x Movie Tele-converter 8000mm
Neutral MF Manual Shooting M FullHD F
iso 3200 Shatter speed 1/30 F/11
My 1st attempt to film it
Subscribe ► and don't forget the bell 🔔 to turn on post notifications!✔️
https://instagram.com/sakellarisnikolaos/ ◄ Official Instagram✔️
https://twitter.com/SakellarisNiko ◄ Official Twitter✔️
https://facebook.com/nikolaos.sakellaris/ ◄ Official Facebook✔️
https://www.patreon.com/sakellarisnikolaos ◄ Patreon✔️
https://youtube.com/c/NikolaosSakellaris ◄ Official Youtube✔️
https://video-photo-blog.blogspot.com/ ◄ Viphoblog✔️
http://www.snn.gr/info_en.html ◄ About: me✔️

Complete name : 100OLYMP\P5130289.MOV
Format : MPEG-4 Format profile : QuickTime Codec ID : qt 2011.07 (qt ) File size : 44.7 MiB Duration : 53 s 554 ms Overall bit rate : 6 995 kb/s Encoded date : UTC 2020-05-13 05:38:20 TAGS : 8"R
Video
ID : 1 Format : AVC Format/Info : Advanced Video Codec
Format profile : High@L4.1 Format settings : 2 Ref Frames Format settings, CABAC : No Format settings, RefFrames : 2 frames Format settings, GOP : M=3, N=8 Codec ID : avc1 Codec ID/Info : Advanced Video Coding Duration : 53 s 554 ms Bit rate : 5 322 kb/s Width : 1 920 pixels Height : 1 080 pixels Display aspect ratio : 16:9 Frame rate mode : Constant Frame rate : 29.970 (30000/1001) FPS Color space : YUV Chroma subsampling : 4:2:0 Bit depth : 8 bits Scan type : Progressive Bits/(Pixel*Frame) : 0.086 Stream size : 34.0 MiB (76%) Language : Japanese Color range : Full Color primaries : BT.601 NTSC Transfer characteristics : BT.601 Matrix coefficients : BT.601 Menus : 0 Codec configuration box : avcC
Audio
ID : 2 Format : PCM Format settings : Little / Signed Codec ID : sowt
Duration : 53 s 554 ms Source duration : 53 s 560 ms Bit rate mode : Constant Bit rate : 1 536 kb/s Channel(s) : 2 channels Channel layout : L R Sampling rate : 48.0 kHz Bit depth : 16 bits Stream size : 9.81 MiB (22%) Source stream size : 9.81 MiB (22%) Language : Japanese
Mars is the fourth planet from the Sun and the second-smallest planet in the Solar System after Mercury. In English, Mars carries the name of the Roman god of war and is often referred to as the 'Red Planet'.[16][17] The latter refers to the effect of the iron oxide prevalent on Mars' surface, which gives it a reddish appearance distinctive among the astronomical bodies visible to the naked eye.[18] Mars is a terrestrial planet with a thin atmosphere, with surface features reminiscent of the impact craters of the Moon and the valleys, deserts and polar ice caps of Earth.

Popular Posts