BN44-00366 K02P140.00 Power supply inverter Samsung LE22C350 LCD TV Disassembled

 

 

 

CN08BN4400366BGP53Z860318 K0DP140D0
BN44-00366 Power supply inverter for Samsung LE22C350 LCD TV Disassembled
0036BAA3109SSA7 E200008740-07L2

T216HA01-JC
E216WA0211144030712UX0000010921 VSCCC082D0599
HU10BN9402656TF063ZA82792

Don’t forget to click the bell to turn on post notifications!

Nikolaos Instagram: https://www.instagram.com/sakellarisnikolaos/
Twitter: https://twitter.com/SakellarisNiko
Facebook: https://www.facebook.com/nikolaos.sakellaris/
Blog: https://video-photo-blog.blogspot.com/


LE22C350 LCD TV
http://www.samsung.com/uk/
Samsung LCD TV

filmed with SANYO CG100

Interfaces-Ports
HDMI CI+  VGA  USB  
Depth with Stand 17.2 cm
Weight  4.20 kg
Width with Stand 53.5 cm
Height with Stand 42.1 cm
Width 53.5 cm
VESA Mount 75 x 75
Depth 8.2 cm Height 36.6 cm Colour Black
Dimensions 36.6 cm (H): 53.5 cm (W): 8.2 cm (D)
Picture in Picture
Electronic Program Guide
Screen Size 55.9 cm (22") 16:9
Audio RMS Output Power 6 W
Sound System Dolby Digital Plus
Standby Power 500 mW
Maximum Resolution 1366 x 768
Operating Power 55 W
Digital Tuner DVB-C (MPEG4)
Standard HDTV
Refresh Rate 50 Hz

BN94-02656T Mainboard Samsung LE22C350 LCD TV Disassembled

 HU10BN9402656TF063ZA82792
BN94-02656T Mainboard for Samsung LE22C350 LCD TV Disassembled
T216HA01-JC
E216WA0211144030712UX0000010921 VSCCC082D0599

Don’t forget to click the bell to turn on post notifications!

Nikolaos Instagram: https://www.instagram.com/sakellarisnikolaos/
Twitter: https://twitter.com/SakellarisNiko
Facebook: https://www.facebook.com/nikolaos.sakellaris/
Blog: https://video-photo-blog.blogspot.com/

LE22C350 LCD TV
http://www.samsung.com/uk/
Samsung LCD TV

filmed with SANYO  CG100

Interfaces-Ports
HDMI CI+  VGA  USB  
Depth with Stand 17.2 cm
Weight  4.20 kg
Width with Stand 53.5 cm
Height with Stand 42.1 cm
Width 53.5 cm
VESA Mount 75 x 75
Depth 8.2 cm Height 36.6 cm Colour Black
Dimensions 36.6 cm (H): 53.5 cm (W): 8.2 cm (D)
Picture in Picture
Electronic Program Guide
Screen Size 55.9 cm (22") 16:9
Audio RMS Output Power 6 W
Sound System Dolby Digital Plus
Standby Power 500 mW
Maximum Resolution 1366 x 768
Operating Power 55 W
Digital Tuner DVB-C (MPEG4)
Standard HDTV
Refresh Rate 50 Hz

Movie Tele-converter Fn2 4x Olympus OM-D E-M10 Pigeons with SIGMA AF APO MACRO 180 mm 1:5.6

 

 

 Pigeons birds
Camera Olympus OM-D E-M10
Lens SIGMA AF APO MACRO 180 mm 1:5.6
Movie-.I,S. ON Focal Length INFO 180mm  360 at M4/3 sensor
Fn2 4x Movie Tele-converter 1440mm
Vivid  MF Manual Shooting M FullHD F
iso 100 Shatter speed 1/1000   F/5.6

Don’t forget to click the bell to turn on post notifications!

Nikolaos Instagram: https://www.instagram.com/sakellarisnikolaos/
Twitter: https://twitter.com/SakellarisNiko
Facebook: https://www.facebook.com/nikolaos.sakellaris/
Blog: https://video-photo-blog.blogspot.com/

Complete name : O\OLYMPUS\OM-D E-M10\P4170183.MOV
Format : MPEG-4
Format profile : QuickTime
Codec ID : qt 2011.07 (qt )
File size : 293 MiB
Duration : 1 min 37 s
Overall bit rate : 25.2 Mb/s
Encoded date : UTC 2020-04-17 17:42:43
TAGS : 8"R

Video
ID : 1
Format : AVC
Format/Info : Advanced Video Codec
Format profile : High@L4.1
Format settings : 2 Ref Frames
Format settings, CABAC : No
Format settings, RefFrames : 2 frames
Format settings, GOP : M=3, N=8
Codec ID : avc1
Codec ID/Info : Advanced Video Coding
Duration : 1 min 37 s
Bit rate : 23.6 Mb/s
Width : 1 920 pixels
Height : 1 080 pixels
Display aspect ratio : 16:9
Frame rate mode : Constant
Frame rate : 29.970 (30000/1001) FPS
Color space : YUV
Chroma subsampling : 4:2:0
Bit depth : 8 bits
Scan type : Progressive
Bits/(Pixel*Frame) : 0.379
Stream size : 274 MiB (94%)
Language : Japanese
Color range : Full
Color primaries : BT.601 NTSC
Transfer characteristics : BT.601
Matrix coefficients : BT.601
Menus : 0
Codec configuration box : avcC

Audio
ID : 2
Format : PCM
Format settings : Little / Signed
Codec ID : sowt
Duration : 1 min 37 s
Source duration : 1 min 37 s
Bit rate mode : Constant
Bit rate : 1 536 kb/s
Channel(s) : 2 channels
Channel layout : L R
Sampling rate : 48.0 kHz
Bit depth : 16 bits
Stream size : 17.9 MiB (6%)
Source stream size : 17.9 MiB (6%)
Language : Japanese

Flying over beaches with drone 4k UHD Video Relaxing

 Fying over beaches with drone Relaxing beautiful beaches islands green and blue waters sunrise & sunset from a drone with music relaxation Nikolaos Instagram: https://www.instagram.com/sakellarisnikolaos/ Twitter: https://twitter.com/SakellarisNiko Facebook: https://www.facebook.com/nikolaos.sakellaris/ Blog: https://video-photo-blog.blogspot.com/ Title : Asleep with the Sun Artist :Unicorn Heads --- Thank you https://www.youtube.com/channel/UCbdU8d-QYGeEseYLlrSy8KQ a Creative Commons Attribution license (https://creativecommons.org/licenses/by/4.0/) Videos from free Pexel Complete name : Videos\Asleep with the SunUnicorn Heads.mp4 Format : MPEG-4 Format profile : Base Media Codec ID : isom (isom/iso2/avc1/mp41) File size : 1.67 GiB Duration : 6 min 6 s Overall bit rate : 39.2 Mb/s Writing application : Lavf58.20.100 Video ID : 1 Format : AVC Format/Info : Advanced Video Codec Format profile : High@L5.1 Format settings : CABAC / 3 Ref Frames Format settings, CABAC : Yes Format settings, RefFrames : 3 frames Format settings, GOP : M=1, N=12 Codec ID : avc1 Codec ID/Info : Advanced Video Coding Duration : 6 min 6 s Bit rate : 39.0 Mb/s Nominal bit rate : 15.0 Mb/s Width : 3 840 pixels Height : 2 160 pixels Display aspect ratio : 16:9 Frame rate mode : Constant Frame rate : 29.970 (30000/1001) FPS Color space : YUV Chroma subsampling : 4:2:0 Bit depth : 8 bits Scan type : Progressive Bits/(Pixel*Frame) : 0.157 Stream size : 1.66 GiB (99%) Writing library : x264 core 157 r2970M 5493be8 Encoding settings : cabac=1 / ref=3 / deblock=1:0:0 / analyse=0x3:0x113 / me=hex / subme=7 / psy=1 / psy_rd=1.00:0.00 / mixed_ref=1 / me_range=16 / chroma_me=1 / trellis=1 / 8x8dct=1 / cqm=0 / deadzone=21,11 / fast_pskip=1 / chroma_qp_offset=-2 / threads=4 / lookahead_threads=1 / sliced_threads=0 / nr=0 / decimate=1 / interlaced=0 / bluray_compat=0 / constrained_intra=0 / bframes=0 / weightp=2 / keyint=12 / keyint_min=1 / scenecut=40 / intra_refresh=0 / rc_lookahead=12 / rc=abr / mbtree=1 / bitrate=15000 / ratetol=1.0 / qcomp=0.60 / qpmin=2 / qpmax=30 / qpstep=4 / ip_ratio=1.40 / aq=1:1.00 Codec configuration box : avcC Audio ID : 2 Format : AAC LC Format/Info : Advanced Audio Codec Low Complexity Codec ID : mp4a-40-2 Duration : 6 min 6 s Bit rate mode : Constant Bit rate : 192 kb/s Channel(s) : 2 channels Channel layout : L R Sampling rate : 48.0 kHz Frame rate : 46.875 FPS (1024 SPF) Compression mode : Lossy Stream size : 8.43 MiB (0%) Default : Yes Alternate group : 1

Pigeon Olympus OM-D E-M10 4x Movie Tele-converter Fn2 with SIGMA AF APO MACRO 180 mm 1:5.6

 

 

 Dove bird Movie Tele-converter ON Camera Olympus OM-D E-M10 Lens IGMA AF APO MACRO 180 mm 1:5.6 Movie-.I,S. ON Focal Length INFO 180mm 3260 at M4/3 sensor Fn2 4x Movie Tele-converter 1440mm Vivid MF Manual Shooting M FullHD F iso 100 Shatter speed 1/1000 F/5.6 Don’t forget to click the bell to turn on post notifications! Nikolaos Instagram: https://www.instagram.com/sakellarisnikolaos/ Twitter: https://twitter.com/SakellarisNiko Facebook: https://www.facebook.com/nikolaos.sakellaris/ Blog: https://video-photo-blog.blogspot.com/ Complete name : OLYMPUS\OM-D E-M10\video\P4160153.MOV Format : MPEG-4 Format profile : QuickTime Codec ID : qt 2011.07 (qt ) File size : 290 MiB Duration : 1 min 35 s Overall bit rate : 25.6 Mb/s Encoded date : UTC 2020-04-16 18:04:22 TAGS : 8"R Video ID : 1 Format : AVC Format/Info : Advanced Video Codec Format profile : High@L4.1 Format settings : 2 Ref Frames Format settings, CABAC : No Format settings, RefFrames : 2 frames Format settings, GOP : M=3, N=8 Codec ID : avc1 Codec ID/Info : Advanced Video Coding Duration : 1 min 35 s Bit rate : 24.0 Mb/s Width : 1 920 pixels Height : 1 080 pixels Display aspect ratio : 16:9 Frame rate mode : Constant Frame rate : 29.970 (30000/1001) FPS Color space : YUV Chroma subsampling : 4:2:0 Bit depth : 8 bits Scan type : Progressive Bits/(Pixel*Frame) : 0.386 Stream size : 272 MiB (94%) Language : Japanese Color range : Full Color primaries : BT.601 NTSC Transfer characteristics : BT.601 Matrix coefficients : BT.601 Menus : 0 Codec configuration box : avcC Audio ID : 2 Format : PCM Format settings : Little / Signed Codec ID : sowt Duration : 1 min 35 s Source duration : 1 min 35 s Bit rate mode : Constant Bit rate : 1 536 kb/s Channel(s) : 2 channels Channel layout : L R Sampling rate : 48.0 kHz Bit depth : 16 bits Stream size : 17.4 MiB (6%) Source stream size : 17.4 MiB (6%) Language : Japanese

Dove bird walking : Panasonic Lumix DMC-GX80 4k UHD with SIGMA AF APO MACRO 180 mm 1:5.6 EOS to MFT

 

 

 

Dove bird walking Filming Location: Larissa , Greece. Camera : Panasonic Lumix DMC-GX80 16 Mp Crop factor 2 Lens : SIGMA AF APO MACRO 180 mm f/5.6 Ø52 eos @ f/5.6 360mm equivalent 35mm Mode : A ISO 200 EV 0,0 i-Dynamic HIGH Custo3 Highlight Shadow 0 0 Video Stabilization ON Video 3840x2160 @ 25fps EOS adapted to M4/3 MFT Don’t forget to click the bell to turn on post notifications! Nikolaos Instagram: https://www.instagram.com/sakellarisnikolaos/ Twitter: https://twitter.com/SakellarisNiko Facebook: https://www.facebook.com/nikolaos.sakellaris/ Blog: https://video-photo-blog.blogspot.com/ Complete name : PANASONIC\DMC-GX80\P1110094.MP4 Format : MPEG-4 Format profile : Base Media / Version 2 Codec ID : mp42 (mp42/avc1) File size : 1.07 GiB Duration : 1 min 41 s Overall bit rate mode : Variable Overall bit rate : 90.1 Mb/s Encoded date : UTC 2020-04-12 15:12:44 PANA : Ê Video ID : 1 Format : AVC Format/Info : Advanced Video Codec Format profile : High@L5.1 Format settings : CABAC / 2 Ref Frames Format settings, CABAC : Yes Format settings, RefFrames : 2 frames Codec ID : avc1 Codec ID/Info : Advanced Video Coding Duration : 1 min 41 s Bit rate mode : Variable Bit rate : 89.9 Mb/s Maximum bit rate : 106 Mb/s Width : 3 840 pixels Height : 2 160 pixels Display aspect ratio : 16:9 Frame rate mode : Constant Frame rate : 25.000 FPS Color space : YUV Chroma subsampling : 4:2:0 Bit depth : 8 bits Scan type : Progressive Bits/(Pixel*Frame) : 0.434 Stream size : 1.07 GiB (100%) Encoded date : UTC 2020-04-12 15:12:44 Tagged date : UTC 2020-04-12 15:12:44 Color range : Limited Color primaries : BT.709 Transfer characteristics : BT.709 Matrix coefficients : BT.709 Codec configuration box : avcC Audio ID : 2 Format : AAC LC Format/Info : Advanced Audio Codec Low Complexity Codec ID : mp4a-40-2 Duration : 1 min 41 s Source duration : 1 min 41 s Bit rate mode : Constant Bit rate : 128 kb/s Channel(s) : 2 channels Channel layout : L R Sampling rate : 48.0 kHz Frame rate : 46.875 FPS (1024 SPF) Compression mode : Lossy Stream size : 1.52 MiB (0%) Source stream size : 1.52 MiB (0%)

LG 28MT42VF PZ Disassembly broken smashed LCD display 28'' TV Monitor

 

 

 This video is for 28'' TV Monitor LG 28MT42VF PZ led tv and how you can to Disassembly and remove broken LCD display. Attention to small pieces of glass can hurt your hands. First remove all back screws and remove the back plate.After remove all small screws from the front frame. Remove the frame and detach the stickers holding the smashed LCD display. Buy new one if you can find economic 50-60$ max. Don’t forget to click the bell to turn on post notifications! Nikolaos Instagram: https://www.instagram.com/sakellarisnikolaos/ Twitter: https://twitter.com/SakellarisNiko Facebook: https://www.facebook.com/nikolaos.sakellaris/ Blog: https://video-photo-blog.blogspot.com/ I Am a Man Who Will Fight for Your Honor by Chris Zabriskie is licensed under a Creative Commons Attribution license (https://creativecommons.org/licenses/by/4.0/) Source: http://chriszabriskie.com/honor/ Artist: http://chriszabriskie.com/ Thank you 03TQHPL002 G0A0NB04T3872568M1772 715G8524-M01-B00-004K 715G7801-P01-W04-0H2H TBV280227D8X00K10CXC7A63214 LVB280WX220ADE2H0X 750TBV280227D8N000 B280WX220ADE2ELCAAC7A63214 12V = 2A 28" LED=18.9V/735mA 32" LED=23.8V/825mA P28080200 3837024 P 1283 SCA81794890012375 12800WT79J2Y1175 28MT42VF PZ 28'' HD Ready TV Monitor (28''Diagonal) Enjoy both TV and Monitor together Wide Viewing Angle 5W x 2 Stereo Speaker Wall Mount GENERAL Size (Inch / cm) 27.1" / 68.97cmPanel Type Wide Viewing Angle Colour Gamut (CIE1931) 0.68Colour Bit 8bit (6bit+FRC) Colour Depth (Num of Colours) 16.7MPixel Pitch (mm) 0.44475x0.44925 Aspect Ratio 16:9Resolution 1366 x 768 Brightness(cd/m2) 180(typ.), 160(Min.)Contrast Ratio (Original) 1200:1 (GTG) 8msViewing Angle (CR≥10) R/L 178 (Typ.), U/D178 (Typ.) (CR≥10) JACK INPUT/OUTPUT Composite 1Component 1 HDMI Yes (2EA, HDMI1.4)CI Slot Yes USB (Ver.) Yes (USB2.0)Jack Location (Signal Input) Rear/Side (Audio Input) RCA 1Digital(Tuner Input) Yes (DVB-T2/C/S2) Analog PAL/SECAMJack Location(Tuner Input) Rear SPEAKER Type InternalAudio output 5W x 2 POWER Type PSU (58W)Input 100V~240V Normal On (typ.) 34WDC Off (Max) 0.5W FREQUENCY HDMI (H-Frequency) 15.63kHz~67.5kHzHDMI (V-Frequency) 23.976Hz~70.08Hz RESOLUTION PC (HDMI) 1366 x 768Video (HDMI) 480i,576i, 480p, 576p 720p, 1080i, 1080p Component 480i, 576i, 480p, 576p 720p, 1080i, 1080pComposit 480i, 576i CONTROL KEY Key Number (Power Key Included) 1 KeyKey Type Tact LED Colour (On mode) OffLED Colour (Standby) Red [ Key Location ] Bottom OSD SPECIAL FEATURE HDCP YesRemote Control Yes EPG YesTeletext Yes Audio Description (Visual Impaired) YesDivx HD player (USB Media Player) Yes (without DivX codec) Smart Energy saving YesPicture Mode Vivid/ Standard/ Eco/ Cinema/Sports/Game ARC-PC 16:9 / Just Scan / Original / Full Wide / 4:3 / 14:9 / ZoomARC-Video 16:9 / Just Scan / Original / Full Wide / 4:3 / 14:9 / Zoom AVL (Auto Volume) YesAuto / Manual Clock Yes On/ Off Time YesSleep Timer Yes Auto Off / Auto Sleep Yes COLOUR Front Black GlossyB/Cover Black Texture Base Black Hairline+Texture STAND Base Detchable Detachable DIMENSION(W*D*H, MM) Set (with Stand) 635 x 182.4 x 427Set (without Stand) 635 x 77.8 x 387 Box 738 x 130 x 502Wall Mount size (mm) 100x100 WEIGHT(KG) Set (with Stand) 4.1Set (without Stand) 4 Box 5.7 STUFFING Pallet (20ft/40ft/40ft HC) 476 / 1088 / 1088 WRAP Packing Material EPSStacking Type Vertical Stand Packing Type Base DetachBox Printing Type Flexo 1 color Handle No (Hand hole) STANDARD ERP Yes (Class A)CE Yes ACCESSORY Power Cord YesRemote Controller Yes

BN44-00366 K02P140.00 Power supply inverter Samsung LE22C350 LCD TV Disassembled

      CN08BN4400366BGP53Z860318 K0DP140D0 BN44-00366 Power supply inverter for Samsung LE22C350 LCD TV Disassembled 0036BAA3109SSA7 E2000...