Showing posts with label JVC. Show all posts
Showing posts with label JVC. Show all posts

Clouds : JVC Everio GZ-GX1 video test #001 50fps FHD




Clouds
JVC Everio GZ-GX1BEK
video test #001
50fps FHD 28.0 Mb/s
F/1.2

Complete name : AVCHD\BDMV\STREAM\00012.MTS
Format : BDAV
Format/Info : Blu-ray Video
File size : 204 MiB
Duration : 1 min 2 s
Overall bit rate mode : Variable
Overall bit rate : 27.6 Mb/s
Maximum Overall bit rate : 28.0 Mb/s
Recorded date : 2019-05-17 17:15:24+02:00
Writing application : JVC 

Video
ID : 4113 (0x1011)
Menu ID : 1 (0x1)
Format : AVC
Format/Info : Advanced Video Codec
Format profile : High@L4.2
Format settings : CABAC / 2 Ref Frames
Format settings, CABAC : Yes
Format settings, Reference frames : 2 frames
Format settings, GOP : M=3, N=12
Codec ID : 27
Duration : 1 min 2 s
Bit rate mode : Variable
Bit rate : 26.3 Mb/s
Maximum bit rate : 26.8 Mb/s
Width : 1 920 pixels
Height : 1 080 pixels
Display aspect ratio : 16:9
Frame rate : 50.000 FPS
Color space : YUV
Chroma subsampling : 4:2:0
Bit depth : 8 bits
Scan type : Progressive
Bits/(Pixel*Frame) : 0.253
Stream size : 195 MiB (95%)

Audio
ID : 4352 (0x1100)
Menu ID : 1 (0x1)
Format : AC-3
Format/Info : Audio Coding 3
Commercial name : Dolby Digital
Codec ID : 129
Duration : 1 min 2 s
Bit rate mode : Constant
Bit rate : 256 kb/s
Channel(s) : 2 channels
Channel layout : L R
Sampling rate : 48.0 kHz
Frame rate : 31.250 FPS (1536 SPF)
Bit depth : 16 bits
Compression mode : Lossy
Delay relative to video : -40 ms
Stream size : 1.90 MiB (1%)
Service kind : Complete Main

Text
ID : 4608 (0x1200)
Menu ID : 1 (0x1)
Format : PGS
Codec ID : 144
Duration : 1 min 1 s
Delay relative to video : -40 ms

1st Airplane flies in front of the Half Moon 0:51 JVC Everio GZ-HM200BE #004 1080 25fps



1.29 pm 1st Airplane flies in front of the Half Moon
JVC Everio GZ-HM200BE
Hand 20x Zoom
video test #003 1080 25fps 24.0 Mb/s
manual focus

Complete name :AVCHD\BDMV\STREAM\00032.MTS
Format : BDAV
Format/Info : Blu-ray Video
File size : 22.1 MiB
Duration : 1 min 0 s
Overall bit rate mode : Variable
Overall bit rate : 3 050 kb/s
Maximum Overall bit rate : 24.0 Mb/s
Recorded date : 2019-05-12 01:28:01+00:00
Writing application : JVC

Video
ID : 4113 (0x1011)
Menu ID : 1 (0x1)
Format : AVC
Format/Info : Advanced Video Codec
Format profile : High@L4
Format settings : 2 Ref Frames
Format settings, CABAC : No
Format settings, RefFrames : 2 frames
Format settings, GOP : M=2, N=12
Codec ID : 27
Duration : 1 min 0 s
Bit rate mode : Variable
Bit rate : 2 662 kb/s
Maximum bit rate : 22.6 Mb/s
Width : 1 920 pixels
Height : 1 080 pixels
Display aspect ratio : 16:9
Frame rate : 25.000 FPS
Color space : YUV
Chroma subsampling : 4:2:0
Bit depth : 8 bits
Scan type : Interlaced
Scan type, store method : Separated fields
Scan order : Top Field First
Bits/(Pixel*Frame) : 0.051
Stream size : 19.3 MiB (87%)

Audio
ID : 4352 (0x1100)
Menu ID : 1 (0x1)
Format : AC-3
Format/Info : Audio Coding 3
Commercial name : Dolby Digital
Codec ID : 129
Duration : 1 min 0 s
Bit rate mode : Constant
Bit rate : 256 kb/s
Channel(s) : 2 channels
Channel layout : L R
Sampling rate : 48.0 kHz
Frame rate : 31.250 FPS (1536 SPF)
Bit depth : 16 bits
Compression mode : Lossy
Delay relative to video : -40 ms
Stream size : 1.86 MiB (8%)
Service kind : Complete Main

Text
ID : 4608 (0x1200)
Menu ID : 1 (0x1)
Format : PGS
Codec ID : 144
Duration : 1 min 0 s
Delay relative to video : -40 ms

Hand 40x Zoom - Dove Bird : JVC Everio GZ-HM200BE GZ-HM200BE #002 1080 25fps



Dove Bird
JVC Everio GZ-HM200BE
Hand 40x Zoom
video test #002 1080 25fps 24.0 Mb/s

Complete name : E:\PRIVATE\AVCHD\BDMV\STREAM\00013.MTS
Format : BDAV
Format/Info : Blu-ray Video
File size : 89.2 MiB
Duration : 31 s 614 ms
Overall bit rate mode : Variable
Overall bit rate : 23.7 Mb/s
Maximum Overall bit rate : 24.0 Mb/s
Recorded date : 2019-04-24 17:52:19+00:00
Writing application : JVC

Video
ID : 4113 (0x1011)
Menu ID : 1 (0x1)
Format : AVC
Format/Info : Advanced Video Codec
Format profile : High@L4
Format settings : 2 Ref Frames
Format settings, CABAC : No
Format settings, Reference frames : 2 frames
Format settings, GOP : M=2, N=12
Codec ID : 27
Duration : 31 s 640 ms
Bit rate mode : Variable
Bit rate : 22.6 Mb/s
Width : 1 920 pixels
Height : 1 080 pixels
Display aspect ratio : 16:9
Frame rate : 25.000 FPS
Color space : YUV
Chroma subsampling : 4:2:0
Bit depth : 8 bits
Scan type : Interlaced
Scan type, store method : Separated fields
Scan order : Top Field First
Bits/(Pixel*Frame) : 0.436
Stream size : 84.8 MiB (95%)

Audio
ID : 4352 (0x1100)
Menu ID : 1 (0x1)
Format : AC-3
Format/Info : Audio Coding 3
Commercial name : Dolby Digital
Codec ID : 129
Duration : 31 s 680 ms
Bit rate mode : Constant
Bit rate : 256 kb/s
Channel(s) : 2 channels
Channel layout : L R
Sampling rate : 48.0 kHz
Frame rate : 31.250 FPS (1536 SPF)
Bit depth : 16 bits
Compression mode : Lossy
Delay relative to video : -40 ms
Stream size : 990 KiB (1%)
Service kind : Complete Main

Text
ID : 4608 (0x1200)
Menu ID : 1 (0x1)
Format : PGS
Codec ID : 144
Duration : 31 s 175 ms
Delay relative to video : -40 ms

Poppy Flower : JVC Everio GZ-HM200BE video test #001 1080 25fps



Flowers JVC Everio GZ-HM200BE
video test #001 1080 25fps bit rate : 24.0 Mb/s

Complete name : AVCHD\BDMV\STREAM\00025.MTS
Format : BDAV
Format/Info : Blu-ray Video
File size : 86.4 MiB
Duration : 30 s 659 ms
Overall bit rate mode : Variable
Overall bit rate : 23.6 Mb/s
Maximum Overall bit rate : 24.0 Mb/s
Recorded date : 2019-04-30 16:09:30+00:00
Writing application : JVC

Video
ID : 4113 (0x1011)
Menu ID : 1 (0x1)
Format : AVC
Format/Info : Advanced Video Codec
Format profile : High@L4
Format settings : 2 Ref Frames
Format settings, CABAC : No
Format settings, Reference frames : 2 frames
Format settings, GOP : M=2, N=12
Codec ID : 27
Duration : 30 s 680 ms
Bit rate mode : Variable
Bit rate : 22.6 Mb/s
Width : 1 920 pixels
Height : 1 080 pixels
Display aspect ratio : 16:9
Frame rate : 25.000 FPS
Color space : YUV
Chroma subsampling : 4:2:0
Bit depth : 8 bits
Scan type : Interlaced
Scan type, store method : Separated fields
Scan order : Top Field First
Bits/(Pixel*Frame) : 0.436
Stream size : 82.1 MiB (95%)

Audio
ID : 4352 (0x1100)
Menu ID : 1 (0x1)
Format : AC-3
Format/Info : Audio Coding 3
Commercial name : Dolby Digital
Codec ID : 129
Duration : 30 s 720 ms
Bit rate mode : Constant
Bit rate : 256 kb/s
Channel(s) : 2 channels
Channel layout : L R
Sampling rate : 48.0 kHz
Frame rate : 31.250 FPS (1536 SPF)
Bit depth : 16 bits
Compression mode : Lossy
Delay relative to video : -40 ms
Stream size : 960 KiB (1%)
Service kind : Complete Main

Text
ID : 4608 (0x1200)
Menu ID : 1 (0x1)
Format : PGS
Codec ID : 144
Duration : 30 s 215 ms
Delay relative to video : -40 ms

Canon FD Adapter to Canon EOS body 1200d




NOT WORKING AT INFINITY IS 50 CM MAXIMUM

Adaptor NOT WORKING to Canon 1200d EOS body
* Infinity at 50cm with Canon FL 50mm f/1.4
glass is needed to focus to INFINITY

FD-EOS adattatore di montaggio non anello vetro per obiettivo Canon FD EOS EF

JVC everio GZ-HD620 product video 4K 25fps



GZ-HD620 JVC everio product video 1920x1080 to 4K 25fps upgraded
from GZ-HD620BEK internal hard drive.



Format : MPEG-4
File size : 243 MiB
Duration : 1 min 15 s
Overall bit rate mode : Variable
Overall bit rate : 27.0 Mb/s
Writing application : Lavf55.33.100

Video
ID : 1
Format : AVC
Format/Info : Advanced Video Codec
Format profile : High@L5.1
Format settings : CABAC / 3 Ref Frames
Format settings, CABAC : Yes
Format settings, RefFrames : 3 frames
Codec ID : avc1
Codec ID/Info : Advanced Video Coding
Duration : 1 min 14 s
Bit rate : 27.0 Mb/s
Width : 3 840 pixels
Height : 2 160 pixels
Display aspect ratio : 16:9
Frame rate mode : Constant
Frame rate : 25.000 FPS
Color space : YUV
Chroma subsampling : 4:2:0
Bit depth : 8 bits
Scan type : Progressive
Bits/(Pixel*Frame) : 0.130
Stream size : 242 MiB (99%)
Writing library : x264 core 142 r2455 021c0dc
Encoding settings : cabac=1 / ref=3 / deblock=1:0:0 / analyse=0x3:0x113 / me=hex / subme=7 / psy=1 / psy_rd=1.00:0.00 / mixed_ref=1 / me_range=16 / chroma_me=1 / trellis=1 / 8x8dct=1 / cqm=0 / deadzone=21,11 / fast_pskip=1 / chroma_qp_offset=-4 / threads=4 / lookahead_threads=1 / sliced_threads=0 / nr=0 / decimate=1 / interlaced=0 / bluray_compat=0 / constrained_intra=0 / bframes=0 / weightp=2 / keyint=250 / keyint_min=25 / scenecut=40 / intra_refresh=0 / rc=crf / mbtree=0 / crf=23.0 / qcomp=0.60 / qpmin=4 / qpmax=69 / qpstep=4 / ip_ratio=1.40 / aq=1:1.00
Codec configuration box : avcC

Audio
ID : 2
Format : AAC LC
Format/Info : Advanced Audio Codec Low Complexity
Codec ID : mp4a-40-2
Duration : 1 min 15 s
Bit rate mode : Variable
Bit rate : 156 kb/s
Maximum bit rate : 320 kb/s
Channel(s) : 2 channels
Channel layout : L R
Sampling rate : 48.0 kHz
Frame rate : 46.875 FPS (1024 SPF)
Compression mode : Lossy
Stream size : 1.40 MiB (1%)

JVC GC-FM1BE HD memory camera Disassembled

Disassembled JVC GC-FM1 High definition 1440 x1080 camera.
Inside boards and connections.

1/3.2-inch 8 Megapixel CMOS
4x Digital Zoom
Memory Card Slot for SDHC/SD
Software provided (for Windows (R))
1080P HD Video Recording
8 Megapixel Still Image Shooting

Video: with Samsung NX-1100 20.3mp HD 1920 x 834 24fps (1.30)
Shutter 1/30 ISO 400
Lens: Super Paragon PMC II AUTO
APERTURE (F) f/3.5
FOCAL LENGTH (MM) f=24mm  (FORMAT 35 mm full frame)
FOCAL LENGTH (MM) f=36mm  (FOCAL LENGTH APS-C)
FILTER DIAMETER (MM)  52mm
MINIMUM FOCUS DISTANCE 0.17m to Infinity.
CANON FD Mount adapted to NX Samsung

Genova città deserta Seconda parte rimaniamo a casa Μένουμε Σπίτι και εμείς

rimaniamo a casa Seconda parte Genova città deserta #StayHome Γένοβα δεύτερο μέρος Μένουμε Σπίτι και εμείς 2nd Part desert Genoa Geno...