In the park Bench Trees : Xiaomi Yi M1 with Helios-44M-4 58mm f/2 M42 adapted to M4/3 4k




Bench Trees Plants in the park Larissa Greece
Camera : Xiaomi Yi M1 mirrorless Sony IMX269
Lens : Helios-44M-4 58mm f/2 M42 @ f/2
Mode : A ISO 200 EV 0,0
Video Stabilization ON Video 3840x2160 @ 30fps
M42 adapted MFT
Yi M1 M42 adapted video test
M42 adapted M4/3

Complete name : YI M1\VIDEO\PB050117.MP4
Format : MPEG-4
Format profile : Base Media / Version 2
Codec ID : mp42 (mp42/avc1)
File size : 1.07 GiB
Duration : 2 min 0 s
Overall bit rate mode : Variable
Overall bit rate : 76.2 Mb/s
Encoded date : UTC 2019-11-05 14:10:14
Tagged date : UTC 2019-11-05 14:10:14

Video
ID : 1
Format : AVC
Format/Info : Advanced Video Codec
Format profile : High@L5.1
Format settings : 1 Ref Frames
Format settings, CABAC : No
Format settings, Reference frames : 1 frame
Format settings, GOP : M=1, N=15
Codec ID : avc1
Codec ID/Info : Advanced Video Coding
Duration : 2 min 0 s
Bit rate : 76.1 Mb/s
Width : 3 840 pixels
Height : 2 160 pixels
Display aspect ratio : 16:9
Frame rate mode : Constant
Frame rate : 29.970 (30000/1001) FPS
Color space : YUV
Chroma subsampling : 4:2:0
Bit depth : 8 bits
Scan type : Progressive
Bits/(Pixel*Frame) : 0.306
Stream size : 1.06 GiB (100%)
Language : English
Encoded date : UTC 2019-11-05 14:10:14
Tagged date : UTC 2019-11-05 14:10:14
Color range : Full
Color primaries : BT.601 NTSC
Transfer characteristics : BT.709
Matrix coefficients : BT.601
Menus : 3
Codec configuration box : avcC

Audio
ID : 2
Format : AAC LC
Format/Info : Advanced Audio Codec Low Complexity
Codec ID : mp4a-40-2
Duration : 2 min 0 s
Source duration : 2 min 0 s
Bit rate mode : Variable
Bit rate : 128 kb/s
Maximum bit rate : 192 kb/s
Channel(s) : 2 channels
Channel layout : L R
Sampling rate : 48.0 kHz
Frame rate : 46.875 FPS (1024 SPF)
Compression mode : Lossy
Stream size : 1.82 MiB (0%)
Source stream size : 1.82 MiB (0%)
Language : English
Encoded date : UTC 2019-11-05 14:10:14

In the park Trees Blue Sky : Xiaomi Yi M1 with Helios-44M-4 58mm f/2 M42 adapted to M4/3 4k




Blue Sky, Trees in the park Larissa Greece
Camera : Xiaomi Yi M1 mirrorless Sony IMX269
Lens : Helios-44M-4 58mm f/2 M42 @ f/2
Mode : A ISO 200 EV 0,0
Video Stabilization ON Video 3840x2160 @ 30fps
M42 adapted MFT
Yi M1 M42 adapted video test
M42 adapted M4/3

Complete name : YI M1\VIDEO\PB050121.MP4
Format : MPEG-4
Format profile : Base Media / Version 2
Codec ID : mp42 (mp42/avc1)
File size : 923 MiB
Duration : 1 min 40 s
Overall bit rate mode : Variable
Overall bit rate : 77.3 Mb/s
Encoded date : UTC 2019-11-05 14:17:56
Tagged date : UTC 2019-11-05 14:17:56

Video
ID : 1
Format : AVC
Format/Info : Advanced Video Codec
Format profile : High@L5.1
Format settings : 1 Ref Frames
Format settings, CABAC : No
Format settings, Reference frames : 1 frame
Format settings, GOP : M=1, N=15
Codec ID : avc1
Codec ID/Info : Advanced Video Coding
Duration : 1 min 40 s
Bit rate : 77.2 Mb/s
Width : 3 840 pixels
Height : 2 160 pixels
Display aspect ratio : 16:9
Frame rate mode : Constant
Frame rate : 29.970 (30000/1001) FPS
Color space : YUV
Chroma subsampling : 4:2:0
Bit depth : 8 bits
Scan type : Progressive
Bits/(Pixel*Frame) : 0.311
Stream size : 921 MiB (100%)
Language : English
Encoded date : UTC 2019-11-05 14:17:56
Tagged date : UTC 2019-11-05 14:17:56
Color range : Full
Color primaries : BT.601 NTSC
Transfer characteristics : BT.709
Matrix coefficients : BT.601
Menus : 3
Codec configuration box : avcC

Audio
ID : 2
Format : AAC LC
Format/Info : Advanced Audio Codec Low Complexity
Codec ID : mp4a-40-2
Duration : 1 min 40 s
Source duration : 1 min 40 s
Bit rate mode : Variable
Bit rate : 128 kb/s
Maximum bit rate : 192 kb/s
Channel(s) : 2 channels
Channel layout : L R
Sampling rate : 48.0 kHz
Frame rate : 46.875 FPS (1024 SPF)
Compression mode : Lossy
Stream size : 1.52 MiB (0%)
Source stream size : 1.52 MiB (0%)
Language : English
Encoded date : UTC 2019-11-05 14:17:56

In the park Tree Sun flares: Xiaomi Yi M1 with Helios-44M-4 58mm f/2 M42 adapted to M4/3 4k




Tree Sun flares in the park Larissa Greece
Camera : Xiaomi Yi M1 mirrorless Sony IMX269
Lens : Helios-44M-4 58mm f/2 M42 @ f/2
Mode : A ISO 200 EV 0,0
Video Stabilization ON Video 3840x2160 @ 30fps
M42 adapted MFT
Yi M1 M42 adapted video test
M42 adapted M4/3

Complete name : YI M1\VIDEO\PB050119.MP4
Format : MPEG-4
Format profile : Base Media / Version 2
Codec ID : mp42 (mp42/avc1)
File size : 898 MiB
Duration : 1 min 39 s
Overall bit rate mode : Variable
Overall bit rate : 76.0 Mb/s
Encoded date : UTC 2019-11-05 14:14:15
Tagged date : UTC 2019-11-05 14:14:15

Video
ID : 1
Format : AVC
Format/Info : Advanced Video Codec
Format profile : High@L5.1
Format settings : 1 Ref Frames
Format settings, CABAC : No
Format settings, Reference frames : 1 frame
Format settings, GOP : M=1, N=15
Codec ID : avc1
Codec ID/Info : Advanced Video Coding
Duration : 1 min 39 s
Bit rate : 75.9 Mb/s
Width : 3 840 pixels
Height : 2 160 pixels
Display aspect ratio : 16:9
Frame rate mode : Constant
Frame rate : 29.970 (30000/1001) FPS
Color space : YUV
Chroma subsampling : 4:2:0
Bit depth : 8 bits
Scan type : Progressive
Bits/(Pixel*Frame) : 0.305
Stream size : 897 MiB (100%)
Language : English
Encoded date : UTC 2019-11-05 14:14:15
Tagged date : UTC 2019-11-05 14:14:15
Color range : Full
Color primaries : BT.601 NTSC
Transfer characteristics : BT.709
Matrix coefficients : BT.601
Menus : 3
Codec configuration box : avcC

Audio
ID : 2
Format : AAC LC
Format/Info : Advanced Audio Codec Low Complexity
Codec ID : mp4a-40-2
Duration : 1 min 39 s
Source duration : 1 min 39 s
Bit rate mode : Variable
Bit rate : 128 kb/s
Maximum bit rate : 192 kb/s
Channel(s) : 2 channels
Channel layout : L R
Sampling rate : 48.0 kHz
Frame rate : 46.875 FPS (1024 SPF)
Compression mode : Lossy
Stream size : 1.50 MiB (0%)
Source stream size : 1.50 MiB (0%)
Language : English
Encoded date : UTC 2019-11-05 14:14:15

In the park Βench : Xiaomi Yi M1 with Helios-44M-4 58mm f/2 M42 adapted to M4/3 4k




Βench in the park Larissa Greece
Camera : Xiaomi Yi M1 mirrorless Sony IMX269
Lens : Helios-44M-4 58mm f/2 M42 @ f/2
Mode : A ISO 200 EV 0,0
Video Stabilization ON Video 3840x2160 @ 30fps
M42 adapted MFT
Yi M1 M42 adapted video test
M42 adapted M4/3

Complete name : YI M1\VIDEO\PB050120.MP4
Format : MPEG-4
Format profile : Base Media / Version 2
Codec ID : mp42 (mp42/avc1)
File size : 800 MiB
Duration : 1 min 28 s
Overall bit rate mode : Variable
Overall bit rate : 76.2 Mb/s
Encoded date : UTC 2019-11-05 14:16:11
Tagged date : UTC 2019-11-05 14:16:11

Video
ID : 1
Format : AVC
Format/Info : Advanced Video Codec
Format profile : High@L5.1
Format settings : 1 Ref Frames
Format settings, CABAC : No
Format settings, Reference frames : 1 frame
Format settings, GOP : M=1, N=15
Codec ID : avc1
Codec ID/Info : Advanced Video Coding
Duration : 1 min 28 s
Bit rate : 76.0 Mb/s
Width : 3 840 pixels
Height : 2 160 pixels
Display aspect ratio : 16:9
Frame rate mode : Constant
Frame rate : 29.970 (30000/1001) FPS
Color space : YUV
Chroma subsampling : 4:2:0
Bit depth : 8 bits
Scan type : Progressive
Bits/(Pixel*Frame) : 0.306
Stream size : 798 MiB (100%)
Language : English
Encoded date : UTC 2019-11-05 14:16:11
Tagged date : UTC 2019-11-05 14:16:11
Color range : Full
Color primaries : BT.601 NTSC
Transfer characteristics : BT.709
Matrix coefficients : BT.601
Menus : 3
Codec configuration box : avcC

Audio
ID : 2
Format : AAC LC
Format/Info : Advanced Audio Codec Low Complexity
Codec ID : mp4a-40-2
Duration : 1 min 28 s
Source duration : 1 min 28 s
Bit rate mode : Variable
Bit rate : 128 kb/s
Maximum bit rate : 192 kb/s
Channel(s) : 2 channels
Channel layout : L R
Sampling rate : 48.0 kHz
Frame rate : 46.875 FPS (1024 SPF)
Compression mode : Lossy
Stream size : 1.34 MiB (0%)
Source stream size : 1.34 MiB (0%)
Language : English
Encoded date : UTC 2019-11-05 14:16:11

In the park Swings : Xiaomi Yi M1 with Helios-44M-4 58mm f/2 M42 adapted to M4/3 4k




Swings in the park Larissa Greece
Camera : Xiaomi Yi M1 mirrorless Sony IMX269
Lens : Helios-44M-4 58mm f/2 M42 @ f/2
Mode : A ISO 200 EV 0,0
Video Stabilization ON Video 3840x2160 @ 30fps
M42 adapted MFT
Yi M1 M42 adapted video test
M42 adapted M4/3

Complete name : YI M1\VIDEO\PB050118.MP4
Format : MPEG-4
Format profile : Base Media / Version 2
Codec ID : mp42 (mp42/avc1)
File size : 635 MiB
Duration : 1 min 10 s
Overall bit rate mode : Variable
Overall bit rate : 76.1 Mb/s
Encoded date : UTC 2019-11-05 14:12:43
Tagged date : UTC 2019-11-05 14:12:43

Video
ID : 1
Format : AVC
Format/Info : Advanced Video Codec
Format profile : High@L5.1
Format settings : 1 Ref Frames
Format settings, CABAC : No
Format settings, Reference frames : 1 frame
Format settings, GOP : M=1, N=15
Codec ID : avc1
Codec ID/Info : Advanced Video Coding
Duration : 1 min 10 s
Bit rate : 75.9 Mb/s
Width : 3 840 pixels
Height : 2 160 pixels
Display aspect ratio : 16:9
Frame rate mode : Constant
Frame rate : 29.970 (30000/1001) FPS
Color space : YUV
Chroma subsampling : 4:2:0
Bit depth : 8 bits
Scan type : Progressive
Bits/(Pixel*Frame) : 0.305
Stream size : 634 MiB (100%)
Language : English
Encoded date : UTC 2019-11-05 14:12:43
Tagged date : UTC 2019-11-05 14:12:43
Color range : Full
Color primaries : BT.601 NTSC
Transfer characteristics : BT.709
Matrix coefficients : BT.601
Menus : 3
Codec configuration box : avcC

Audio
ID : 2
Format : AAC LC
Format/Info : Advanced Audio Codec Low Complexity
Codec ID : mp4a-40-2
Duration : 1 min 10 s
Source duration : 1 min 10 s
Bit rate mode : Variable
Bit rate : 128 kb/s
Maximum bit rate : 192 kb/s
Channel(s) : 2 channels
Channel layout : L R
Sampling rate : 48.0 kHz
Frame rate : 46.875 FPS (1024 SPF)
Compression mode : Lossy
Stream size : 1.06 MiB (0%)
Source stream size : 1.06 MiB (0%)
Language : English
Encoded date : UTC 2019-11-05 14:12:43

In the park Plant Tree : Xiaomi Yi M1 with Helios-44M-4 58mm f/2 M42 adapted to M4/3 4k




Plant Tree in the park Larissa Greece
Camera : Xiaomi Yi M1 mirrorless Sony IMX269
Lens : Helios-44M-4 58mm f/2 M42 @ f/2
Mode : A ISO 200 EV 0,0
Video Stabilization ON Video 3840x2160 @ 30fps
M42 adapted MFT
Yi M1 M42 adapted video test
M42 adapted M4/3

Complete name : H:\PHOTO\XIAOMI\YI M1\VIDEO\PB050116.MP4
Format : MPEG-4
Format profile : Base Media / Version 2
Codec ID : mp42 (mp42/avc1)
File size : 899 MiB
Duration : 1 min 39 s
Overall bit rate mode : Variable
Overall bit rate : 76.1 Mb/s
Encoded date : UTC 2019-11-05 14:08:18
Tagged date : UTC 2019-11-05 14:08:18

Video
ID : 1
Format : AVC
Format/Info : Advanced Video Codec
Format profile : High@L5.1
Format settings : 1 Ref Frames
Format settings, CABAC : No
Format settings, Reference frames : 1 frame
Format settings, GOP : M=1, N=15
Codec ID : avc1
Codec ID/Info : Advanced Video Coding
Duration : 1 min 39 s
Bit rate : 75.9 Mb/s
Width : 3 840 pixels
Height : 2 160 pixels
Display aspect ratio : 16:9
Frame rate mode : Constant
Frame rate : 29.970 (30000/1001) FPS
Color space : YUV
Chroma subsampling : 4:2:0
Bit depth : 8 bits
Scan type : Progressive
Bits/(Pixel*Frame) : 0.305
Stream size : 897 MiB (100%)
Language : English
Encoded date : UTC 2019-11-05 14:08:18
Tagged date : UTC 2019-11-05 14:08:18
Color range : Full
Color primaries : BT.601 NTSC
Transfer characteristics : BT.709
Matrix coefficients : BT.601
Menus : 3
Codec configuration box : avcC

Audio
ID : 2
Format : AAC LC
Format/Info : Advanced Audio Codec Low Complexity
Codec ID : mp4a-40-2
Duration : 1 min 39 s
Source duration : 1 min 39 s
Bit rate mode : Variable
Bit rate : 128 kb/s
Maximum bit rate : 192 kb/s
Channel(s) : 2 channels
Channel layout : L R
Sampling rate : 48.0 kHz
Frame rate : 46.875 FPS (1024 SPF)
Compression mode : Lossy
Stream size : 1.50 MiB (0%)
Source stream size : 1.50 MiB (0%)
Language : English
Encoded date : UTC 2019-11-05 14:08:18

In the park Cat : Xiaomi Yi M1 with Helios-44M-4 58mm f/2 M42 adapted to M4/3 4k




Cat in the park Larissa Greece
Camera : Xiaomi Yi M1 mirrorless Sony IMX269
Lens : Helios-44M-4 58mm f/2 M42 @ f/2
Mode : A ISO 200 EV 0,0
Video Stabilization ON Video 3840x2160 @ 30fps
M42 adapted MFT
Yi M1 M42 adapted video test
M42 adapted M4/3

Complete name : YI M1\VIDEO\PB050115.MP4
Format : MPEG-4
Format profile : Base Media / Version 2
Codec ID : mp42 (mp42/avc1)
File size : 645 MiB
Duration : 1 min 11 s
Overall bit rate mode : Variable
Overall bit rate : 76.2 Mb/s
Encoded date : UTC 2019-11-05 14:06:52
Tagged date : UTC 2019-11-05 14:06:52

Video
ID : 1
Format : AVC
Format/Info : Advanced Video Codec
Format profile : High@L5.1
Format settings : 1 Ref Frames
Format settings, CABAC : No
Format settings, Reference frames : 1 frame
Format settings, GOP : M=1, N=15
Codec ID : avc1
Codec ID/Info : Advanced Video Coding
Duration : 1 min 11 s
Bit rate : 76.0 Mb/s
Width : 3 840 pixels
Height : 2 160 pixels
Display aspect ratio : 16:9
Frame rate mode : Constant
Frame rate : 29.970 (30000/1001) FPS
Color space : YUV
Chroma subsampling : 4:2:0
Bit depth : 8 bits
Scan type : Progressive
Bits/(Pixel*Frame) : 0.306
Stream size : 644 MiB (100%)
Language : English
Encoded date : UTC 2019-11-05 14:06:52
Tagged date : UTC 2019-11-05 14:06:52
Color range : Full
Color primaries : BT.601 NTSC
Transfer characteristics : BT.709
Matrix coefficients : BT.601
Menus : 3
Codec configuration box : avcC

Audio
ID : 2
Format : AAC LC
Format/Info : Advanced Audio Codec Low Complexity
Codec ID : mp4a-40-2
Duration : 1 min 11 s
Source duration : 1 min 11 s
Bit rate mode : Variable
Bit rate : 128 kb/s
Maximum bit rate : 192 kb/s
Channel(s) : 2 channels
Channel layout : L R
Sampling rate : 48.0 kHz
Frame rate : 46.875 FPS (1024 SPF)
Compression mode : Lossy
Stream size : 1.08 MiB (0%)
Source stream size : 1.08 MiB (0%)
Language : English
Encoded date : UTC 2019-11-05 14:06:52

In the park Plant : Xiaomi Yi M1 with Helios-44M-4 58mm f/2 M42 adapted to M4/3 4k




Plant in the park Larissa Greece
Camera : Xiaomi Yi M1 mirrorless Sony IMX269
Lens : Helios-44M-4 58mm f/2 M42 @ f/2
Mode : A ISO 200 EV 0,0
Video Stabilization ON Video 3840x2160 @ 30fps
M42 adapted MFT
Yi M1 M42 adapted video test
M42 adapted M4/3

Complete name : YI M1\VIDEO\PB050114.MP4
Format : MPEG-4
Format profile : Base Media / Version 2
Codec ID : mp42 (mp42/avc1)
File size : 572 MiB
Duration : 1 min 3 s
Overall bit rate mode : Variable
Overall bit rate : 76.0 Mb/s
Encoded date : UTC 2019-11-05 14:05:15
Tagged date : UTC 2019-11-05 14:05:15

Video
ID : 1
Format : AVC
Format/Info : Advanced Video Codec
Format profile : High@L5.1
Format settings : 1 Ref Frames
Format settings, CABAC : No
Format settings, Reference frames : 1 frame
Format settings, GOP : M=1, N=15
Codec ID : avc1
Codec ID/Info : Advanced Video Coding
Duration : 1 min 3 s
Bit rate : 75.9 Mb/s
Width : 3 840 pixels
Height : 2 160 pixels
Display aspect ratio : 16:9
Frame rate mode : Constant
Frame rate : 29.970 (30000/1001) FPS
Color space : YUV
Chroma subsampling : 4:2:0
Bit depth : 8 bits
Scan type : Progressive
Bits/(Pixel*Frame) : 0.305
Stream size : 571 MiB (100%)
Language : English
Encoded date : UTC 2019-11-05 14:05:15
Tagged date : UTC 2019-11-05 14:05:15
Color range : Full
Color primaries : BT.601 NTSC
Transfer characteristics : BT.709
Matrix coefficients : BT.601
Menus : 3
Codec configuration box : avcC

Audio
ID : 2
Format : AAC LC
Format/Info : Advanced Audio Codec Low Complexity
Codec ID : mp4a-40-2
Duration : 1 min 3 s
Source duration : 1 min 3 s
Bit rate mode : Variable
Bit rate : 128 kb/s
Maximum bit rate : 192 kb/s
Channel(s) : 2 channels
Channel layout : L R
Sampling rate : 48.0 kHz
Frame rate : 46.875 FPS (1024 SPF)
Compression mode : Lossy
Stream size : 980 KiB (0%)
Source stream size : 981 KiB (0%)
Language : English
Encoded date : UTC 2019-11-05 14:05:15

Genova città deserta Seconda parte rimaniamo a casa Μένουμε Σπίτι και εμείς

rimaniamo a casa Seconda parte Genova città deserta #StayHome Γένοβα δεύτερο μέρος Μένουμε Σπίτι και εμείς 2nd Part desert Genoa Geno...