Sunset Larissa Greece- Canon EOS 1200d + Canon Zoom Lens EF-S 18-55mm f/3.5-5.6 III FHD 1080 24fps




Sunset Larissa Greece
Camera : Canon EOS 1200d
Lens : Canon  Zoom Lens EF-S 18-55mm f/3.5-5.6 III
video test FHD 1080 24fps
Complete name DCIM\100CANON\MVI_7138.MOV
Format : MPEG-4
Format profile : QuickTime
Codec ID : qt 2007.09 (qt /CAEP)
File size : 127 MiB
Duration : 30 s 906 ms
Overall bit rate : 34.4 Mb/s
Encoded date : UTC 2019-03-03 18:32:31

Video
ID : 1
Format : AVC
Format/Info : Advanced Video Codec
Format profile : Baseline@L5
Format settings : 1 Ref Frames
Format settings, CABAC : No
Format settings, RefFrames : 1 frame
Format settings, GOP : M=1, N=12
Codec ID : avc1
Codec ID/Info : Advanced Video Coding
Duration : 30 s 906 ms
Bit rate : 32.9 Mb/s
Width : 1 920 pixels
Height : 1 080 pixels
Original height : 1 088 pixels
Display aspect ratio : 16:9
Original display aspect ratio : 16:9
Frame rate mode : Constant
Frame rate : 23.976 (24000/1001) FPS
Color space : YUV
Chroma subsampling : 4:2:0
Bit depth : 8 bits
Scan type : Progressive
Bits/(Pixel*Frame) : 0.661
Stream size : 121 MiB (95%)
Language : English
Encoded date : UTC 2019-03-03 18:32:31
Color range : Full
Color primaries : BT.709
Transfer characteristics : BT.709
Matrix coefficients : BT.601
Codec configuration box : avcC

Audio
ID : 2
Format : PCM
Format settings : Little / Signed
Codec ID : sowt
Duration : 30 s 906 ms
Bit rate mode : Constant
Bit rate : 1 536 kb/s
Channel(s) : 2 channels
Channel layout : L R
Sampling rate : 48.0 kHz
Bit depth : 16 bits
Stream size : 5.66 MiB (4%)
Language : English
Encoded date : UTC 2019-03-03 18:32:31

Full Moon rises : Lumix DMC-GX80 + SIGMA TELEMAC VARIO 2X-3X + PARAGON f/8 500mm f72 4k UHD 25fps




Full Moon rises 13/OCT/2019
Camera : Panasonic Lumix DMC-GX80
Lens: PARAGON f/8 500mm f72 T2 - @ f/16
Teleconverter : SIGMA TELEMAC VARIO 2X 2.5X 3X  m42
video test 4k UHD  3840 x 2160 25fps
PARAGON 500mm f/8
1:8 f= 500mm



Complete name : PHOTO\PANASONIC\DMC-GX80\P1100473.MP4
Format : MPEG-4
Format profile : Base Media / Version 2
Codec ID : mp42 (mp42/avc1)
File size : 963 MiB
Duration : 3 min 1 s
Overall bit rate mode : Variable
Overall bit rate : 44.4 Mb/s
Encoded date : UTC 2019-10-13 19:42:37
PANA : Ê

Video
ID : 1
Format : AVC
Format/Info : Advanced Video Codec
Format profile : High@L5.1
Format settings : CABAC / 2 Ref Frames
Format settings, CABAC : Yes
Format settings, Reference frames : 2 frames
Codec ID : avc1
Codec ID/Info : Advanced Video Coding
Duration : 3 min 1 s
Bit rate mode : Variable
Bit rate : 44.3 Mb/s
Maximum bit rate : 106 Mb/s
Width : 3 840 pixels
Height : 2 160 pixels
Display aspect ratio : 16:9
Frame rate mode : Constant
Frame rate : 25.000 FPS
Color space : YUV
Chroma subsampling : 4:2:0
Bit depth : 8 bits
Scan type : Progressive
Bits/(Pixel*Frame) : 0.214
Stream size : 960 MiB (100%)
Encoded date : UTC 2019-10-13 19:42:37
Color range : Limited
Color primaries : BT.709
Transfer characteristics : BT.709
Matrix coefficients : BT.709
Codec configuration box : avcC

Audio
ID : 2
Format : AAC LC
Format/Info : Advanced Audio Codec Low Complexity
Codec ID : mp4a-40-2
Duration : 3 min 1 s
Source duration : 3 min 1 s
Bit rate mode : Constant
Bit rate : 128 kb/s
Channel(s) : 2 channels
Channel layout : L R
Sampling rate : 48.0 kHz
Frame rate : 46.875 FPS (1024 SPF)
Compression mode : Lossy
Stream size : 2.72 MiB (0%)
Source stream size : 2.72 MiB (0%)
Encoded date : UTC 2019-10-13 19:42:37

Full Moon rises : Lumix DMC-GX80 + PARAGON f/8 500mm f72 4k UHD 25fps




Full Moon rises 13/OCT/2019
Camera : Panasonic Lumix DMC-GX80
Lens: PARAGON f/8 500mm f72 T2 - @ f/16
video test 4k UHD  3840 x 2160 25fps
PARAGON 500mm f/8
1:8 f= 500mm

Full Moon : Lumix DMC-GX80 + PHOTAX f/8 500mm f72 (mod) + SIGMA TELEMAC VARIO 2X-3X UHD 25fps




Full Moon 13/OCT/2019
Camera : Panasonic Lumix DMC-GX80
Lens: PHOTAX f/8 500mm f72 T2 - @ f/16 T2 modified removed internal group the two elements it seems to be 400mm
Teleconverter : SIGMA TELEMAC VARIO 2X 2.5X 3X  m42
video test 4k UHD  3 840 x 2 160  25fps
PHOTAX 500mm f/8
1:8 f= 500mm


Complete name :DCIM\110_PANA\P1100383.MP4
Format : MPEG-4
Format profile : Base Media / Version 2
Codec ID : mp42 (mp42/avc1)
File size : 1.48 GiB
Duration : 3 min 17 s
Overall bit rate mode : Variable
Overall bit rate : 64.4 Mb/s
Encoded date : UTC 2019-10-13 02:32:16
PANA : Ê

Video
ID : 1
Format : AVC
Format/Info : Advanced Video Codec
Format profile : High@L5.1
Format settings : CABAC / 2 Ref Frames
Format settings, CABAC : Yes
Format settings, Reference frames : 2 frames
Codec ID : avc1
Codec ID/Info : Advanced Video Coding
Duration : 3 min 17 s
Bit rate mode : Variable
Bit rate : 64.3 Mb/s
Maximum bit rate : 106 Mb/s
Width : 3 840 pixels
Height : 2 160 pixels
Display aspect ratio : 16:9
Frame rate mode : Constant
Frame rate : 25.000 FPS
Color space : YUV
Chroma subsampling : 4:2:0
Bit depth : 8 bits
Scan type : Progressive
Bits/(Pixel*Frame) : 0.310
Stream size : 1.48 GiB (100%)
Encoded date : UTC 2019-10-13 02:32:16
Color range : Limited
Color primaries : BT.709
Transfer characteristics : BT.709
Matrix coefficients : BT.709
Codec configuration box : avcC

Audio
ID : 2
Format : AAC LC
Format/Info : Advanced Audio Codec Low Complexity
Codec ID : mp4a-40-2
Duration : 3 min 17 s
Source duration : 3 min 17 s
Bit rate mode : Constant
Bit rate : 128 kb/s
Channel(s) : 2 channels
Channel layout : L R
Sampling rate : 48.0 kHz
Frame rate : 46.875 FPS (1024 SPF)
Compression mode : Lossy
Stream size : 2.95 MiB (0%)
Source stream size : 2.96 MiB (0%)
Encoded date : UTC 2019-10-13 02:32:16

Full Moon : Panasonic Lumix DMC-GX80 + PHOTAX f/8 500mm f72 (mod) 4k UHD 25fps




Full Moon 13/OCT/2019
Camera : Panasonic Lumix DMC-GX80
Lens: PHOTAX f/8 500mm f72 T2 - @ f/16 T2 modified removed internal group the two elements it seems to be 400mm
video test 4k UHD  3840 x 2160 25fps
PHOTAX 500mm f/8
1:8 f= 500mm

Full Moon : Panasonic Lumix DMC-GX80 + RMC Tokina f/6.3 400mm f72 4k UHD 25fps




Full Moon 13/OCT/2019
Camera : Panasonic Lumix DMC-GX80
Lens: RMC Tokina f/6.3 400mm f72 FD Canon @ f/11
video test 4k UHD  3840 x 2160 25fps
RMC Tokina 400mm f/6.3

Complete name : DCIM\110_PANA\P1100385.MP4
Format : MPEG-4
Format profile : Base Media / Version 2
Codec ID : mp42 (mp42/avc1)
File size : 1.49 GiB
Duration : 5 min 7 s
Overall bit rate mode : Variable
Overall bit rate : 41.6 Mb/s
Encoded date : UTC 2019-10-13 03:03:02
PANA : Ê

Video
ID : 1
Format : AVC
Format/Info : Advanced Video Codec
Format profile : High@L5.1
Format settings : CABAC / 2 Ref Frames
Format settings, CABAC : Yes
Format settings, Reference frames : 2 frames
Codec ID : avc1
Codec ID/Info : Advanced Video Coding
Duration : 5 min 7 s
Bit rate mode : Variable
Bit rate : 41.5 Mb/s
Maximum bit rate : 106 Mb/s
Width : 3 840 pixels
Height : 2 160 pixels
Display aspect ratio : 16:9
Frame rate mode : Constant
Frame rate : 25.000 FPS
Color space : YUV
Chroma subsampling : 4:2:0
Bit depth : 8 bits
Scan type : Progressive
Bits/(Pixel*Frame) : 0.200
Stream size : 1.49 GiB (100%)
Encoded date : UTC 2019-10-13 03:03:02
Color range : Limited
Color primaries : BT.709
Transfer characteristics : BT.709
Matrix coefficients : BT.709
Codec configuration box : avcC

Audio
ID : 2
Format : AAC LC
Format/Info : Advanced Audio Codec Low Complexity
Codec ID : mp4a-40-2
Duration : 5 min 7 s
Source duration : 5 min 7 s
Bit rate mode : Constant
Bit rate : 128 kb/s
Channel(s) : 2 channels
Channel layout : L R
Sampling rate : 48.0 kHz
Frame rate : 46.875 FPS (1024 SPF)
Compression mode : Lossy
Stream size : 4.60 MiB (0%)
Source stream size : 4.60 MiB (0%)
Encoded date : UTC 2019-10-13 03:03:02

Full Moon : Panasonic Lumix DMC-GX80 + PARAGON f/8 500mm f72 + SIGMA TELEMAC VARIO 2X-3X UHD 25fps



Full Moon 13/OCT/2019
Camera : Panasonic Lumix DMC-GX80
Lens: PARAGON f/8 500mm f72 T2 - @ f/16
Teleconverter : SIGMA TELEMAC VARIO 2X 2.5X 3X  m42
video test 4k UHD  3 840 x 2 160  25fps
PARAGON 500mm f/8

Complete name : DCIM\110_PANA\P1100380.MP4
Format : MPEG-4
Format profile : Base Media / Version 2
Codec ID : mp42 (mp42/avc1)
File size : 1.42 GiB
Duration : 4 min 58 s
Overall bit rate mode : Variable
Overall bit rate : 40.9 Mb/s
Encoded date : UTC 2019-10-13 01:52:20
PANA : Ê 

Video
ID : 1
Format : AVC
Format/Info : Advanced Video Codec
Format profile : High@L5.1
Format settings : CABAC / 2 Ref Frames
Format settings, CABAC : Yes
Format settings, Reference frames : 2 frames
Codec ID : avc1
Codec ID/Info : Advanced Video Coding
Duration : 4 min 58 s
Bit rate mode : Variable
Bit rate : 40.7 Mb/s
Maximum bit rate : 106 Mb/s
Width : 3 840 pixels
Height : 2 160 pixels
Display aspect ratio : 16:9
Frame rate mode : Constant
Frame rate : 25.000 FPS
Color space : YUV
Chroma subsampling : 4:2:0
Bit depth : 8 bits
Scan type : Progressive
Bits/(Pixel*Frame) : 0.196
Stream size : 1.42 GiB (100%)
Encoded date : UTC 2019-10-13 01:52:20
Color range : Limited
Color primaries : BT.709
Transfer characteristics : BT.709
Matrix coefficients : BT.709
Codec configuration box : avcC

Audio
ID : 2
Format : AAC LC
Format/Info : Advanced Audio Codec Low Complexity
Codec ID : mp4a-40-2
Duration : 4 min 58 s
Source duration : 4 min 58 s
Bit rate mode : Constant
Bit rate : 128 kb/s
Channel(s) : 2 channels
Channel layout : L R
Sampling rate : 48.0 kHz
Frame rate : 46.875 FPS (1024 SPF)
Compression mode : Lossy
Stream size : 4.46 MiB (0%)
Source stream size : 4.46 MiB (0%)
Encoded date : UTC 2019-10-13 01:52:20

Full Moon : Panasonic Lumix DMC-GX80 + PARAGON f/8 500mm f72 4k UHD 25fps



Full Moon 13/OCT/2019
Camera : Panasonic Lumix DMC-GX80
Lens: PARAGON f/8 500mm f72 T2 - @ f/16
video test 4k UHD  3840 x 2160 25fps
PARAGON 500mm f/8

Complete name : DCIM\110_PANA\P1100381.MP4
Format : MPEG-4
Format profile : Base Media / Version 2
Codec ID : mp42 (mp42/avc1)
File size : 1.52 GiB
Duration : 6 min 43 s
Overall bit rate mode : Variable
Overall bit rate : 32.3 Mb/s
Encoded date : UTC 2019-10-13 02:05:52
PANA : Ê 

Video
ID : 1
Format : AVC
Format/Info : Advanced Video Codec
Format profile : High@L5.1
Format settings : CABAC / 2 Ref Frames
Format settings, CABAC : Yes
Format settings, Reference frames : 2 frames
Codec ID : avc1
Codec ID/Info : Advanced Video Coding
Duration : 6 min 43 s
Bit rate mode : Variable
Bit rate : 32.2 Mb/s
Maximum bit rate : 106 Mb/s
Width : 3 840 pixels
Height : 2 160 pixels
Display aspect ratio : 16:9
Frame rate mode : Constant
Frame rate : 25.000 FPS
Color space : YUV
Chroma subsampling : 4:2:0
Bit depth : 8 bits
Scan type : Progressive
Bits/(Pixel*Frame) : 0.155
Stream size : 1.51 GiB (100%)
Encoded date : UTC 2019-10-13 02:05:52
Color range : Limited
Color primaries : BT.709
Transfer characteristics : BT.709
Matrix coefficients : BT.709
Codec configuration box : avcC

Audio
ID : 2
Format : AAC LC
Format/Info : Advanced Audio Codec Low Complexity
Codec ID : mp4a-40-2
Duration : 6 min 43 s
Source duration : 6 min 43 s
Bit rate mode : Constant
Bit rate : 128 kb/s
Channel(s) : 2 channels
Channel layout : L R
Sampling rate : 48.0 kHz
Frame rate : 46.875 FPS (1024 SPF)
Compression mode : Lossy
Stream size : 6.03 MiB (0%)
Source stream size : 6.03 MiB (0%)
Encoded date : UTC 2019-10-13 02:05:52

Moon : Samsung NX20 + PARAGON f/8 500mm f72 + SIGMA TELEMAC VARIO 2X-3X FHD 1080 25fps



Moon 13/OCT/2019
Camera : Samsung NX20
Lens: PARAGON f/8 500mm f72 T2 - @ f/16
Teleconverter : SIGMA TELEMAC VARIO 2X 2.5X 3X  m42
video test FHD 1080 25fps
PARAGON 500mm f/8

Complete name : DCIM\104PHOTO\SAM_4349.MP4
Format : MPEG-4
Format profile : Base Media / Version 2
Codec ID : mp42 (mp42/isom/avc1)
File size : 162 MiB
Duration : 4 min 6 s
Overall bit rate : 5 515 kb/s

Video
ID : 1
Format : AVC
Format/Info : Advanced Video Codec
Format profile : High@L4.1
Format settings : 2 Ref Frames
Format settings, CABAC : No
Format settings, RefFrames : 2 frames
Format settings, GOP : M=1, N=25
Codec ID : avc1
Codec ID/Info : Advanced Video Coding
Duration : 4 min 6 s
Bit rate : 5 386 kb/s
Width : 1 920 pixels
Height : 1 080 pixels
Display aspect ratio : 16:9
Frame rate mode : Constant
Frame rate : 25.000 FPS
Color space : YUV
Chroma subsampling : 4:2:0
Bit depth : 8 bits
Scan type : Progressive
Bits/(Pixel*Frame) : 0.104
Stream size : 158 MiB (98%)
Language : English
Codec configuration box : avcC

Audio
ID : 2
Format : AAC LC
Format/Info : Advanced Audio Codec Low Complexity
Codec ID : mp4a-40-2
Duration : 4 min 6 s
Bit rate mode : Constant
Bit rate : 128 kb/s
Channel(s) : 2 channels
Channel layout : L R
Sampling rate : 32.0 kHz
Frame rate : 31.250 FPS (1024 SPF)
Compression mode : Lossy
Stream size : 3.72 MiB (2%)
Language : English

Moon : Samsung NX20 + PARAGON f/8 500mm f72 FHD 1080 25fps



Moon 13/OCT/2019
Camera : Samsung NX20
Lens: PARAGON f/8 500mm f72 T2 - @ f/16
video test FHD 1080 25fps
PARAGON 500mm f/8



Moon : Samsung NX20 + PHOTAX f/8 500mm f72 (mod) + SIGMA TELEMAC VARIO 2X-3X FHD 810 24fps



Moon 13/OCT/2019
Camera : Samsung NX20
Lens: PHOTAX f/8 500mm f72 T2 - @ f/16 T2 modified removed internal group the two elements it seems to be 400mm
Teleconverter : SIGMA TELEMAC VARIO 2X 2.5X 3X  m42
PHOTAX 500mm f/8 video test FHD 810 24fps
1:8 f= 500mm


Complete name :DCIM\104PHOTO\SAM_4347.MP4
Format : MPEG-4
Format profile : Base Media / Version 2
Codec ID : mp42 (mp42/isom/avc1)
File size : 170 MiB
Duration : 4 min 7 s
Overall bit rate : 5 764 kb/s

Video
ID : 1
Format : AVC
Format/Info : Advanced Video Codec
Format profile : High@L4.1
Format settings : 2 Ref Frames
Format settings, CABAC : No
Format settings, RefFrames : 2 frames
Format settings, GOP : M=1, N=24
Codec ID : avc1
Codec ID/Info : Advanced Video Coding
Duration : 4 min 7 s
Bit rate : 5 633 kb/s
Width : 1 920 pixels
Height : 810 pixels
Display aspect ratio : 2.40:1
Frame rate mode : Constant
Frame rate : 24.000 FPS
Color space : YUV
Chroma subsampling : 4:2:0
Bit depth : 8 bits
Scan type : Progressive
Bits/(Pixel*Frame) : 0.151
Stream size : 166 MiB (98%)
Language : English
Codec configuration box : avcC

Audio
ID : 2
Format : AAC LC
Format/Info : Advanced Audio Codec Low Complexity
Codec ID : mp4a-40-2
Duration : 4 min 7 s
Bit rate mode : Constant
Bit rate : 128 kb/s
Channel(s) : 2 channels
Channel layout : L R
Sampling rate : 32.0 kHz
Frame rate : 31.250 FPS (1024 SPF)
Compression mode : Lossy
Stream size : 3.74 MiB (2%)
Language : English

Moon : Samsung NX20 + PHOTAX f/8 500mm f72 (mod) FHD 810 24fps



Moon 13/OCT/2019
Camera : Samsung NX20
Lens: PHOTAX f/8 500mm f72 T2 - @ f/16 T2 modified removed internal group the two elements it seems to be 400mm
video test FHD 810 24fps
1:8 f= 500mm


Complete name : IDCIM\104PHOTO\SAM_4345.MP4
Format : MPEG-4
Format profile : Base Media / Version 2
Codec ID : mp42 (mp42/isom/avc1)
File size : 187 MiB
Duration : 5 min 8 s
Overall bit rate : 5 090 kb/s

Video
ID : 1
Format : AVC
Format/Info : Advanced Video Codec
Format profile : High@L4.1
Format settings : 2 Ref Frames
Format settings, CABAC : No
Format settings, RefFrames : 2 frames
Format settings, GOP : M=1, N=24
Codec ID : avc1
Codec ID/Info : Advanced Video Coding
Duration : 5 min 8 s
Bit rate : 4 956 kb/s
Width : 1 920 pixels
Height : 810 pixels
Display aspect ratio : 2.40:1
Frame rate mode : Constant
Frame rate : 24.000 FPS
Color space : YUV
Chroma subsampling : 4:2:0
Bit depth : 8 bits
Scan type : Progressive
Bits/(Pixel*Frame) : 0.133
Stream size : 182 MiB (97%)
Language : English
Codec configuration box : avcC

Audio
ID : 2
Format : AAC LC
Format/Info : Advanced Audio Codec Low Complexity
Codec ID : mp4a-40-2
Duration : 5 min 8 s
Bit rate mode : Constant
Bit rate : 128 kb/s
Channel(s) : 2 channels
Channel layout : L R
Sampling rate : 32.0 kHz
Frame rate : 31.250 FPS (1024 SPF)
Compression mode : Lossy
Stream size : 4.65 MiB (2%)
Language : English

Moon : Sony SLT-A33 + PHOTAX f/8 500mm f72 (mod) + SIGMA TELEMAC VARIO 2X-3X FHD 1080 25fps



Moon 11/OCT/2019
Camera : Sony SLT-A33
Lens: PHOTAX f/8 500mm f72 T2 - @ f/11 T2 modified removed internal group the two elements it seems to be 400mm
Teleconverter : SIGMA TELEMAC VARIO 2X 2.5X 3X  m42
SLT-A33 video test FHD 1080 25fps
1:8 f= 500mm


Complete name : STREAM\00229.MTS
Format : BDAV
Format/Info : Blu-ray Video
File size : 251 MiB
Duration : 2 min 3 s
Overall bit rate mode : Variable
Overall bit rate : 17.1 Mb/s
Maximum Overall bit rate : 18.0 Mb/s
Recorded date : 2019-10-12 01:08:47+02:00
Writing application : Sony SLT-A33

Video
ID : 4113 (0x1011)
Menu ID : 1 (0x1)
Format : AVC
Format/Info : Advanced Video Codec
Format profile : High@L4
Format settings : CABAC / 2 Ref Frames
Format settings, CABAC : Yes
Format settings, Reference frames : 2 frames
Format settings, GOP : M=2, N=13
Codec ID : 27
Duration : 2 min 3 s
Bit rate mode : Variable
Bit rate : 16.0 Mb/s
Width : 1 920 pixels
Height : 1 080 pixels
Display aspect ratio : 16:9
Frame rate : 25.000 FPS
Color space : YUV
Chroma subsampling : 4:2:0
Bit depth : 8 bits
Scan type : Interlaced
Scan type, store method : Separated fields
Scan order : Top Field First
Bits/(Pixel*Frame) : 0.309
Stream size : 237 MiB (94%)
IrisFNumber : 1.000000

Audio
ID : 4352 (0x1100)
Menu ID : 1 (0x1)
Format : AC-3
Format/Info : Audio Coding 3
Commercial name : Dolby Digital
Codec ID : 129
Duration : 2 min 3 s
Bit rate mode : Constant
Bit rate : 256 kb/s
Channel(s) : 2 channels
Channel layout : L R
Sampling rate : 48.0 kHz
Frame rate : 31.250 FPS (1536 SPF)
Compression mode : Lossy
Delay relative to video : -80 ms
Stream size : 3.76 MiB (1%)
Service kind : Complete Main

Text
ID : 4608 (0x1200)
Menu ID : 1 (0x1)
Format : PGS
Codec ID : 144
Duration : 2 min 2 s
Delay relative to video : -80 ms

Moon : Sony SLT-A33 + PHOTAX f/8 500mm f72 (mod) FHD 1080 25fps



Moon 12/OCT/2019
Camera : Sony SLT-A33
Lens: PHOTAX f/8 500mm f72 T2 - @ f/11 T2 modified removed internal group the two elements it seems to be 400mm
video test FHD 1080 25fps
1:8 f= 500mm


Complete name : STREAM\00225.MTS
Format : BDAV
Format/Info : Blu-ray Video
File size : 243 MiB
Duration : 1 min 59 s
Overall bit rate mode : Variable
Overall bit rate : 17.0 Mb/s
Maximum Overall bit rate : 18.0 Mb/s
Recorded date : 2019-10-12 00:58:05+02:00
Writing application : Sony SLT-A33

Video
ID : 4113 (0x1011)
Menu ID : 1 (0x1)
Format : AVC
Format/Info : Advanced Video Codec
Format profile : High@L4
Format settings : CABAC / 2 Ref Frames
Format settings, CABAC : Yes
Format settings, Reference frames : 2 frames
Format settings, GOP : M=2, N=13
Codec ID : 27
Duration : 1 min 59 s
Bit rate mode : Variable
Bit rate : 16.0 Mb/s
Width : 1 920 pixels
Height : 1 080 pixels
Display aspect ratio : 16:9
Frame rate : 25.000 FPS
Color space : YUV
Chroma subsampling : 4:2:0
Bit depth : 8 bits
Scan type : Interlaced
Scan type, store method : Separated fields
Scan order : Top Field First
Bits/(Pixel*Frame) : 0.309
Stream size : 229 MiB (94%)
IrisFNumber : 1.000000

Audio
ID : 4352 (0x1100)
Menu ID : 1 (0x1)
Format : AC-3
Format/Info : Audio Coding 3
Commercial name : Dolby Digital
Codec ID : 129
Duration : 1 min 59 s
Bit rate mode : Constant
Bit rate : 256 kb/s
Channel(s) : 2 channels
Channel layout : L R
Sampling rate : 48.0 kHz
Frame rate : 31.250 FPS (1536 SPF)
Compression mode : Lossy
Delay relative to video : -80 ms
Stream size : 3.65 MiB (2%)
Service kind : Complete Main

Text
ID : 4608 (0x1200)
Menu ID : 1 (0x1)
Format : PGS
Codec ID : 144
Duration : 1 min 59 s
Delay relative to video : -80 ms

Moon : Sony SLT-A33 + PARAGON f/8 500mm f72 + SIGMA TELEMAC VARIO 2X-3X FHD 1080 25fps



Moon 12/OCT/2019
Camera : Sony SLT-A33
Lens: PARAGON f/8 500mm f72 T2 - @ f/11 T2
Teleconverter : SIGMA TELEMAC VARIO 2X 2.5X 3X  m42
video test FHD 1080 25fps

Complete name : STREAM\00224.MTS
Format : BDAV
Format/Info : Blu-ray Video
File size : 495 MiB
Duration : 4 min 3 s
Overall bit rate mode : Variable
Overall bit rate : 17.1 Mb/s
Maximum Overall bit rate : 18.0 Mb/s
Recorded date : 2019-10-11 23:48:33+02:00
Writing application : Sony SLT-A33
1:8 f= 500mm


Video
ID : 4113 (0x1011)
Menu ID : 1 (0x1)
Format : AVC
Format/Info : Advanced Video Codec
Format profile : High@L4
Format settings : CABAC / 2 Ref Frames
Format settings, CABAC : Yes
Format settings, Reference frames : 2 frames
Format settings, GOP : M=2, N=13
Codec ID : 27
Duration : 4 min 3 s
Bit rate mode : Variable
Bit rate : 16.0 Mb/s
Width : 1 920 pixels
Height : 1 080 pixels
Display aspect ratio : 16:9
Frame rate : 25.000 FPS
Color space : YUV
Chroma subsampling : 4:2:0
Bit depth : 8 bits
Scan type : Interlaced
Scan type, store method : Separated fields
Scan order : Top Field First
Bits/(Pixel*Frame) : 0.309
Stream size : 467 MiB (94%)
IrisFNumber : 1.000000

Audio
ID : 4352 (0x1100)
Menu ID : 1 (0x1)
Format : AC-3
Format/Info : Audio Coding 3
Commercial name : Dolby Digital
Codec ID : 129
Duration : 4 min 3 s
Bit rate mode : Constant
Bit rate : 256 kb/s
Channel(s) : 2 channels
Channel layout : L R
Sampling rate : 48.0 kHz
Frame rate : 31.250 FPS (1536 SPF)
Compression mode : Lossy
Delay relative to video : -80 ms
Stream size : 7.43 MiB (2%)
Service kind : Complete Main

Text
ID : 4608 (0x1200)
Menu ID : 1 (0x1)
Format : PGS
Codec ID : 144
Duration : 4 min 2 s
Delay relative to video : -80 ms

Moon : Sony SLT-A33 + PARAGON f/8 500mm f72 FHD 1080 25fps



Moon 12/OCT/2019
Camera : Sony SLT-A33
Lens: PARAGON f/8 500mm f72 T2 - @ f/11 T2
video test FHD 1080 25fps

Complete name : STREAM\00223.MTS
Format : BDAV
Format/Info : Blu-ray Video
File size : 504 MiB
Duration : 4 min 8 s
Overall bit rate mode : Variable
Overall bit rate : 17.0 Mb/s
Maximum Overall bit rate : 18.0 Mb/s
Recorded date : 2019-10-11 23:40:39+02:00
Writing application : Sony SLT-A33

Video
ID : 4113 (0x1011)
Menu ID : 1 (0x1)
Format : AVC
Format/Info : Advanced Video Codec
Format profile : High@L4
Format settings : CABAC / 2 Ref Frames
Format settings, CABAC : Yes
Format settings, Reference frames : 2 frames
Format settings, GOP : M=2, N=13
Codec ID : 27
Duration : 4 min 7 s
Bit rate mode : Variable
Bit rate : 16.0 Mb/s
Width : 1 920 pixels
Height : 1 080 pixels
Display aspect ratio : 16:9
Frame rate : 25.000 FPS
Color space : YUV
Chroma subsampling : 4:2:0
Bit depth : 8 bits
Scan type : Interlaced
Scan type, store method : Separated fields
Scan order : Top Field First
Bits/(Pixel*Frame) : 0.309
Stream size : 476 MiB (94%)
IrisFNumber : 1.000000

Audio
ID : 4352 (0x1100)
Menu ID : 1 (0x1)
Format : AC-3
Format/Info : Audio Coding 3
Commercial name : Dolby Digital
Codec ID : 129
Duration : 4 min 8 s
Bit rate mode : Constant
Bit rate : 256 kb/s
Channel(s) : 2 channels
Channel layout : L R
Sampling rate : 48.0 kHz
Frame rate : 31.250 FPS (1536 SPF)
Compression mode : Lossy
Delay relative to video : -80 ms
Stream size : 7.57 MiB (2%)
Service kind : Complete Main

Text
ID : 4608 (0x1200)
Menu ID : 1 (0x1)
Format : PGS
Codec ID : 144
Duration : 4 min 7 s
Delay relative to video : -80 ms

Moon : Nikon D3200 + Nikon AF NIKKOR 70-300mm f/4-5.6 G f62 + NI AUTO TELEPLUS 2X FHD 1080 25p



Moon 12/OCT/2019
Camera : Nikon D3200 in manual , shutter 1/200, iso 200
Lens: Nikon AF NIKKOR 70-300mm f/4-5.6 G f62 - @ f/5.6
Teleconverter : NI AUTO TELEPLUS 2X manual
Video  test 1920 1080 25p

Complete name : DCIM\122D3200\DSC_8122.MOV
Format : MPEG-4
Format profile : QuickTime
Codec ID : qt 2007.09 (qt /niko)
File size : 439 MiB
Duration : 2 min 54 s
Overall bit rate : 21.1 Mb/s
Encoded date : UTC 2019-10-12 00:39:24
NCDT : NCTG

Video
ID : 1
Format : AVC
Format/Info : Advanced Video Codec
Format profile : High@L4
Format settings : CABAC / 2 Ref Frames
Format settings, CABAC : Yes
Format settings, Reference frames : 2 frames
Format settings, GOP : M=3, N=12
Codec ID : avc1
Codec ID/Info : Advanced Video Coding
Duration : 2 min 54 s
Bit rate : 19.5 Mb/s
Width : 1 920 pixels
Height : 1 080 pixels
Display aspect ratio : 16:9
Frame rate mode : Constant
Frame rate : 25.000 FPS
Color space : YUV
Chroma subsampling : 4:2:0
Bit depth : 8 bits
Scan type : Progressive
Bits/(Pixel*Frame) : 0.377
Stream size : 407 MiB (93%)
Language : English
Encoded date : UTC 2019-10-12 00:39:24
Color range : Full
Color primaries : BT.709
transfer_characteristics_Original : BT.470 System M
Matrix coefficients : BT.601
Codec configuration box : avcC

Audio
ID : 2
Format : PCM
Format settings : Little / Signed
Codec ID : sowt
Duration : 2 min 54 s
Bit rate mode : Constant
Bit rate : 1 536 kb/s
Channel(s) : 2 channels
Channel layout : L R
Sampling rate : 48.0 kHz
Bit depth : 16 bits
Stream size : 32.0 MiB (7%)
Language : English
Encoded date : UTC 2019-10-12 00:39:24

Moon : Nikon D3200 + Nikon AF NIKKOR 70-300mm f/4-5.6 G f62 FHD 1080 25p



Moon 12/OCT/2019
Camera : Nikon D3200 in manual , shutter 1/320, iso 200
Lens: Nikon AF NIKKOR 70-300mm f/4-5.6 G f62 - @ f/5.6
Video  test 1920 1080 25p

Moon : Nikon D3200 + PARAGON f/8 500mm f72 + SIGMA TELEMAC VARIO 2X-3X FHD 1080 25p



Moon 12/OCT/2019
Camera : Nikon D3200 in manual , shutter 1/300, iso 200
Lens: PARAGON f/8 500mm f72 T2 - @ f/11 T2
Teleconverter : SIGMA TELEMAC VARIO 2X 2.5X 3X  m42
Video  test 1920 1080 25p
1:8 f= 500mm


Complete name :DCIM\122D3200\DSC_8119.MOV
Format : MPEG-4
Format profile : QuickTime
Codec ID : qt 2007.09 (qt /niko)
File size : 532 MiB
Duration : 3 min 27 s
Overall bit rate : 21.5 Mb/s
Encoded date : UTC 2019-10-12 00:21:29
NCDT : NCTG

Video
ID : 1
Format : AVC
Format/Info : Advanced Video Codec
Format profile : High@L4
Format settings : CABAC / 2 Ref Frames
Format settings, CABAC : Yes
Format settings, Reference frames : 2 frames
Format settings, GOP : M=3, N=12
Codec ID : avc1
Codec ID/Info : Advanced Video Coding
Duration : 3 min 27 s
Bit rate : 20.0 Mb/s
Width : 1 920 pixels
Height : 1 080 pixels
Display aspect ratio : 16:9
Frame rate mode : Constant
Frame rate : 25.000 FPS
Color space : YUV
Chroma subsampling : 4:2:0
Bit depth : 8 bits
Scan type : Progressive
Bits/(Pixel*Frame) : 0.385
Stream size : 494 MiB (93%)
Language : English
Encoded date : UTC 2019-10-12 00:21:29
Color range : Full
Color primaries : BT.709
transfer_characteristics_Original : BT.470 System M
Matrix coefficients : BT.601
Codec configuration box : avcC

Audio
ID : 2
Format : PCM
Format settings : Little / Signed
Codec ID : sowt
Duration : 3 min 27 s
Bit rate mode : Constant
Bit rate : 1 536 kb/s
Channel(s) : 2 channels
Channel layout : L R
Sampling rate : 48.0 kHz
Bit depth : 16 bits
Stream size : 38.0 MiB (7%)
Language : English
Encoded date : UTC 2019-10-12 00:21:29

Moon : Nikon D3200 + PARAGON f/8 500mm f72 FHD 1080 25p




Moon 12/OCT/2019
Camera : Nikon D3200 in manual , shutter 1/500, iso 200
Lens: PARAGON f/8 500mm f72 T2 - @ f/11 T2
Video  test 1920 1080 25p 19.3 Mb/s
1:8 f= 500mm


Complete name : DCIM\122D3200\DSC_8120.MOV
Format : MPEG-4
Format profile : QuickTime
Codec ID : qt 2007.09 (qt /niko)
File size : 759 MiB
Duration : 5 min 5 s
Overall bit rate : 20.9 Mb/s
Encoded date : UTC 2019-10-12 00:28:36
NCDT : NCTG

Video
ID : 1
Format : AVC
Format/Info : Advanced Video Codec
Format profile : High@L4
Format settings : CABAC / 2 Ref Frames
Format settings, CABAC : Yes
Format settings, Reference frames : 2 frames
Format settings, GOP : M=3, N=12
Codec ID : avc1
Codec ID/Info : Advanced Video Coding
Duration : 5 min 5 s
Bit rate : 19.3 Mb/s
Width : 1 920 pixels
Height : 1 080 pixels
Display aspect ratio : 16:9
Frame rate mode : Constant
Frame rate : 25.000 FPS
Color space : YUV
Chroma subsampling : 4:2:0
Bit depth : 8 bits
Scan type : Progressive
Bits/(Pixel*Frame) : 0.373
Stream size : 703 MiB (93%)
Language : English
Encoded date : UTC 2019-10-12 00:28:36
Color range : Full
Color primaries : BT.709
transfer_characteristics_Original : BT.470 System M
Matrix coefficients : BT.601
Codec configuration box : avcC

Audio
ID : 2
Format : PCM
Format settings : Little / Signed
Codec ID : sowt
Duration : 5 min 5 s
Bit rate mode : Constant
Bit rate : 1 536 kb/s
Channel(s) : 2 channels
Channel layout : L R
Sampling rate : 48.0 kHz
Bit depth : 16 bits
Stream size : 55.9 MiB (7%)
Language : English
Encoded date : UTC 2019-1

Half Moon : SIGMA DL ZOOM 75-300mm f/4--5.6 55mm + Olympus OM-D E-M10 FHD 30FPS



Half Moon FHD
Camera Olympus OM-D E-M10
 M Mode 200 iso
Lens SIGMA DL ZOOM 75-300mm  f/4--5.6  55m  @ f/8
 OLYMPUS OM to EOS to M4/3
with Crop Sensorc ois On

Complete name : DCIM\100OLYMP\PA060003.MOV
Format : MPEG-4
Format profile : QuickTime
Codec ID : qt 2011.07 (qt )
File size : 303 MiB
Duration : 3 min 53 s
Overall bit rate : 10.9 Mb/s
Encoded date : UTC 2019-10-06 20:05:47
Tagged date : UTC 2019-10-06 20:05:47
TAGS : 8"R

Video
ID : 1
Format : AVC
Format/Info : Advanced Video Codec
Format profile : High@L4.1
Format settings : 2 Ref Frames
Format settings, CABAC : No
Format settings, RefFrames : 2 frames
Format settings, GOP : M=3, N=8
Codec ID : avc1
Codec ID/Info : Advanced Video Coding
Duration : 3 min 53 s
Bit rate : 9 295 kb/s
Width : 1 920 pixels
Height : 1 080 pixels
Display aspect ratio : 16:9
Frame rate mode : Constant
Frame rate : 29.970 (30000/1001) FPS
Color space : YUV
Chroma subsampling : 4:2:0
Bit depth : 8 bits
Scan type : Progressive
Bits/(Pixel*Frame) : 0.150
Stream size : 259 MiB (86%)
Language : Japanese
Encoded date : UTC 2019-10-06 20:05:47
Tagged date : UTC 2019-10-06 20:05:47
Color range : Full
Color primaries : BT.601 NTSC
Transfer characteristics : BT.601
Matrix coefficients : BT.601
Menus : 0
Codec configuration box : avcC

Audio
ID : 2
Format : PCM
Format settings : Little / Signed
Codec ID : sowt
Duration : 3 min 53 s
Source duration : 3 min 53 s
Bit rate mode : Constant
Bit rate : 1 536 kb/s
Channel(s) : 2 channels
Channel layout : L R
Sampling rate : 48.0 kHz
Bit depth : 16 bits
Stream size : 42.8 MiB (14%)
Source stream size : 42.8 MiB (14%)
Language : Japanese
Encoded date : UTC 2019-10-06 20:05:47

   

Half Moon : SIGMA ZOOM λ II f/4.5-5.6 75-300mm 55mm + Olympus OM-D E-M10 FHD 30FPS



Half Moon FHD
Camera Olympus OM-D E-M10
 M Mode 200 iso
Lens SIGMA ZOOM λ II  f/4.5-5. 75-300mm 55mm  @ f/8
    OLYMPUS OM to EOS to M4/3
with Crop Sensorc ois ON

Complete name : DCIM\100OLYMP\PA060002.MOV
Format : MPEG-4
Format profile : QuickTime
Codec ID : qt 2011.07 (qt )
File size : 358 MiB
Duration : 3 min 58 s
Overall bit rate : 12.6 Mb/s
Encoded date : UTC 2019-10-06 19:58:23
Tagged date : UTC 2019-10-06 19:58:23
TAGS : 8"R

Video
ID : 1
Format : AVC
Format/Info : Advanced Video Codec
Format profile : High@L4.1
Format settings : 2 Ref Frames
Format settings, CABAC : No
Format settings, RefFrames : 2 frames
Format settings, GOP : M=3, N=8
Codec ID : avc1
Codec ID/Info : Advanced Video Coding
Duration : 3 min 58 s
Bit rate : 11.0 Mb/s
Width : 1 920 pixels
Height : 1 080 pixels
Display aspect ratio : 16:9
Frame rate mode : Constant
Frame rate : 29.970 (30000/1001) FPS
Color space : YUV
Chroma subsampling : 4:2:0
Bit depth : 8 bits
Scan type : Progressive
Bits/(Pixel*Frame) : 0.177
Stream size : 313 MiB (88%)
Language : Japanese
Encoded date : UTC 2019-10-06 19:58:23
Tagged date : UTC 2019-10-06 19:58:23
Color range : Full
Color primaries : BT.601 NTSC
Transfer characteristics : BT.601
Matrix coefficients : BT.601
Menus : 0
Codec configuration box : avcC

Audio
ID : 2
Format : PCM
Format settings : Little / Signed
Codec ID : sowt
Duration : 3 min 58 s
Source duration : 3 min 58 s
Bit rate mode : Constant
Bit rate : 1 536 kb/s
Channel(s) : 2 channels
Channel layout : L R
Sampling rate : 48.0 kHz
Bit depth : 16 bits
Stream size : 43.6 MiB (12%)
Source stream size : 43.6 MiB (12%)
Language : Japanese
Encoded date : UTC 2019-10-06 19:58:23

SIGMA ZOOM λ II 75-300mm
SIGMA 75-300mm  f/4.5-5.6

Morning Rain Larissa Greece 4/10/2019 - ( Sanyo Xacti VPC-CG100 ) Video test #006



Morning Rain
 Larissa - Greece
Sanyo Xacti VPC-CG100
Video test #006
Πρωινη βροχη Λαρισα
Πρωινή βροχή Λάρισα

Complete name : DCIM\100SANYO\SANY0314.MP4
Format : MPEG-4
Format profile : Base Media / Version 2
Codec ID : mp42 (mp42/avc1)
File size : 103 MiB
Duration : 1 min 4 s
Overall bit rate mode : Variable
Overall bit rate : 13.5 Mb/s
Movie_More : SANYO DIGITAL CAMERA CG100
Encoded date : UTC 2019-10-04 11:32:30

Origin : Digital Camera
TAGS : O DIGITAL CAMERA

Video
ID : 1
Format : AVC
Format/Info : Advanced Video Codec
Format profile : Baseline@L4
Format settings : 2 Ref Frames
Format settings, CABAC : No
Format settings, Reference frames : 2 frames
Format settings, GOP : M=1, N=30
Codec ID : avc1
Codec ID/Info : Advanced Video Coding
Duration : 1 min 4 s
Bit rate : 13.1 Mb/s
Width : 1 920 pixels
Height : 1 080 pixels
Display aspect ratio : 16:9
Frame rate mode : Constant
Frame rate : 29.970 (30000/1001) FPS
Color space : YUV
Chroma subsampling : 4:2:0
Bit depth : 8 bits
Scan type : Progressive
Bits/(Pixel*Frame) : 0.211
Stream size : 100 MiB (97%)
Language : English
Encoded date : UTC 2019-10-04 11:32:30
Color range : Full
Color primaries : BT.709
Transfer characteristics : BT.709
Matrix coefficients : BT.709
Codec configuration box : avcC

Audio
ID : 2
Format : AAC LC
Format/Info : Advanced Audio Codec Low Complexity
Codec ID : mp4a-40-2
Duration : 1 min 4 s
Source duration : 1 min 4 s
Bit rate mode : Variable
Bit rate : 256 kb/s
Maximum bit rate : 192 kb/s
Channel(s) : 2 channels
Channel layout : L R
Sampling rate : 48.0 kHz
Frame rate : 46.875 FPS (1024 SPF)
Compression mode : Lossy
Stream size : 1.95 MiB (2%)
Source stream size : 1.95 MiB (2%)
Language : English
Encoded date : UTC 2019-10-04 11:32:30

Video Stabilazer OFF
Exposure A Aperture - f/3.5 - iso 200 Shuter auto ( 1/30 ~ 1/1000 )
Focus Auto - ISO 50

Sunset Larissa Greece 2 - Samsung S7 Edge HDR UHD 4k




Sunset Larissa Greece 2
 2/10/2019
Samsung S7 Edge
 HDR  UHD 4k 3840 x 2160

Complete name : PHOTO\SAMSUNG\S7-SM-G935F\VID_20191002_183108.mp4
Format : MPEG-4
Format profile : Base Media / Version 2
Codec ID : mp42 (isom/mp42)
File size : 572 MiB
Duration : 1 min 3 s
Overall bit rate : 75.0 Mb/s
Encoded date : UTC 2019-10-02 15:32:12
xyz : +39.6342+022.4094/
com.android.version : 8.0.0

Video
ID : 1
Format : AVC
Format/Info : Advanced Video Codec
Format profile : High@L5.1
Format settings : 1 Ref Frames
Format settings, CABAC : No
Format settings, Reference frames : 1 frame
Format settings, GOP : M=1, N=48
Codec ID : avc1
Codec ID/Info : Advanced Video Coding
Duration : 1 min 3 s
Bit rate : 74.7 Mb/s
Width : 3 840 pixels
Height : 2 160 pixels
Display aspect ratio : 16:9
Frame rate mode : Variable
Frame rate : 23.910 FPS
Minimum frame rate : 7.997 FPS
Maximum frame rate : 24.364 FPS
Color space : YUV
Chroma subsampling : 4:2:0
Bit depth : 8 bits
Scan type : Progressive
Bits/(Pixel*Frame) : 0.377
Stream size : 570 MiB (100%)
Title : VideoHandle
Language : English
Encoded date : UTC 2019-10-02 15:32:12
Codec configuration box : avcC

Audio
ID : 2
Format : AAC LC
Format/Info : Advanced Audio Codec Low Complexity
Codec ID : mp4a-40-2
Duration : 1 min 3 s
Source duration : 1 min 3 s
Bit rate mode : Constant
Bit rate : 256 kb/s
Channel(s) : 2 channels
Channel layout : L R
Sampling rate : 44.1 kHz
Frame rate : 43.066 FPS (1024 SPF)
Compression mode : Lossy
Stream size : 1.93 MiB (0%)
Source stream size : 1.94 MiB (0%)
Title : SoundHandle
Language : English
Encoded date : UTC 2019-10-02 15:32:12

Sunset Larissa Greece 1 - Samsung S7 Edge SM-G935F HDR UHD 4k




Sunset Larissa Greece
 1/10/2019
Samsung S7 Edge SM-G935F
 HDR  UHD 4k 3840x2160

Complete name : samsung S7 EDGE\194447.mp4
Format : MPEG-4
Format profile : Base Media / Version 2
Codec ID : mp42 (isom/mp42)
File size : 569 MiB
Duration : 1 min 3 s
Overall bit rate : 75.2 Mb/s
Encoded date : UTC 2019-10-01 16:45:50
xyz : +39.6342+022.4094/
com.android.version : 8.0.0

Video
ID : 1
Format : AVC
Format/Info : Advanced Video Codec
Format profile : High@L5.1
Format settings : 1 Ref Frames
Format settings, CABAC : No
Format settings, Reference frames : 1 frame
Format settings, GOP : M=1, N=48
Codec ID : avc1
Codec ID/Info : Advanced Video Coding
Duration : 1 min 3 s
Bit rate : 74.9 Mb/s
Width : 3 840 pixels
Height : 2 160 pixels
Display aspect ratio : 16:9
Frame rate mode : Variable
Frame rate : 23.976 (23976/1000) FPS
Minimum frame rate : 12.000 FPS
Maximum frame rate : 24.265 FPS
Color space : YUV
Chroma subsampling : 4:2:0
Bit depth : 8 bits
Scan type : Progressive
Bits/(Pixel*Frame) : 0.377
Stream size : 567 MiB (100%)
Title : VideoHandle
Language : English
Encoded date : UTC 2019-10-01 16:45:50
Tagged date : UTC 2019-10-01 16:45:50
mdhd_Duration : 63448
Codec configuration box : avcC

Audio
ID : 2
Format : AAC LC
Format/Info : Advanced Audio Codec Low Complexity
Codec ID : mp4a-40-2
Duration : 1 min 3 s
Source duration : 1 min 3 s
Bit rate mode : Constant
Bit rate : 256 kb/s
Channel(s) : 2 channels
Channel layout : L R
Sampling rate : 44.1 kHz
Frame rate : 43.066 FPS (1024 SPF)
Compression mode : Lossy
Stream size : 1.92 MiB (0%)
Source stream size : 1.93 MiB (0%)
Title : SoundHandle
Language : English
Encoded date : UTC 2019-10-01 16:45:50

Παρκο Χατζηχαλαρ Λαρισα Chatzichalar park - Larissa - Greece ( Sanyo Xacti VPC-CG100 ) Video test #005




Chatzichalar park
 Larissa - Greece
Sanyo Xacti VPC-CG100
Video test #005
Video Stabilazer OFF
Exposure A Aperture - f/3.5 - Shuter auto ( 1/30 ~ 1/1000 )
Focus Auto - ISO 50
Παρκο Χατζηχαλαρ Λαρισα

Complete name : DCIM\100SANYO\SANY0264.MP4
Format : MPEG-4
Format profile : Base Media / Version 2
Codec ID : mp42 (mp42/avc1)
File size : 184 MiB
Duration : 1 min 39 s
Overall bit rate mode : Variable
Overall bit rate : 15.6 Mb/s
Movie_More : SANYO DIGITAL CAMERA CG100
Encoded date : UTC 2019-09-30 17:29:24
Tagged date : UTC 2019-09-30 17:29:24
Origin : Digital Camera
TAGS : O DIGITAL CAMERA

Video
ID : 1
Format : AVC
Format/Info : Advanced Video Codec
Format profile : Baseline@L4
Format settings : 2 Ref Frames
Format settings, CABAC : No
Format settings, Reference frames : 2 frames
Format settings, GOP : M=1, N=30
Codec ID : avc1
Codec ID/Info : Advanced Video Coding
Duration : 1 min 39 s
Bit rate : 15.2 Mb/s
Width : 1 920 pixels
Height : 1 080 pixels
Display aspect ratio : 16:9
Frame rate mode : Constant
Frame rate : 29.970 (30000/1001) FPS
Color space : YUV
Chroma subsampling : 4:2:0
Bit depth : 8 bits
Scan type : Progressive
Bits/(Pixel*Frame) : 0.244
Stream size : 179 MiB (97%)
Language : English
Encoded date : UTC 2019-09-30 17:29:24

Color range : Full
Color primaries : BT.709
Transfer characteristics : BT.709
Matrix coefficients : BT.709
Codec configuration box : avcC

Audio
ID : 2
Format : AAC LC
Format/Info : Advanced Audio Codec Low Complexity
Codec ID : mp4a-40-2
Duration : 1 min 39 s
Source duration : 1 min 39 s
Bit rate mode : Variable
Bit rate : 256 kb/s
Maximum bit rate : 192 kb/s
Channel(s) : 2 channels
Channel layout : L R
Sampling rate : 48.0 kHz
Frame rate : 46.875 FPS (1024 SPF)
Compression mode : Lossy
Stream size : 3.01 MiB (2%)
Source stream size : 3.01 MiB (2%)
Language : English
Encoded date : UTC 2019-09-30 17:29:24

Reeds - Larissa - Greece ( Sanyo Xacti VPC-CG100 ) Video test #004




Reeds - Larissa - Greece
Sanyo Xacti VPC-CG100
Video test #004
Video Stabilazer OFF
Exposure A Aperture - f/3.5 - Shuter auto ( 1/30 ~ 1/1000 )
Focus Auto -ISO 50


Complete name : DCIM\100SANYO\SANY0260.MP4
Format : MPEG-4
Format profile : Base Media / Version 2
Codec ID : mp42 (mp42/avc1)
File size : 104 MiB
Duration : 1 min 4 s
Overall bit rate mode : Variable
Overall bit rate : 13.6 Mb/s
Movie_More : SANYO DIGITAL CAMERA CG100
Encoded date : UTC 2019-09-30 17:18:03
Tagged date : UTC 2019-09-30 17:18:03
Origin : Digital Camera
TAGS : O DIGITAL CAMERA

Video
ID : 1
Format : AVC
Format/Info : Advanced Video Codec
Format profile : Baseline@L4
Format settings : 2 Ref Frames
Format settings, CABAC : No
Format settings, Reference frames : 2 frames
Codec ID : avc1
Codec ID/Info : Advanced Video Coding
Duration : 1 min 4 s
Bit rate : 13.1 Mb/s
Width : 1 920 pixels
Height : 1 080 pixels
Display aspect ratio : 16:9
Frame rate mode : Constant
Frame rate : 29.970 (30000/1001) FPS
Color space : YUV
Chroma subsampling : 4:2:0
Bit depth : 8 bits
Scan type : Progressive
Bits/(Pixel*Frame) : 0.211
Stream size : 100 MiB (97%)
Language : English
Encoded date : UTC 2019-09-30 17:18:03
Tagged date : UTC 2019-09-30 17:18:03
Color range : Full
Color primaries : BT.709
Transfer characteristics : BT.709
Matrix coefficients : BT.709
Codec configuration box : avcC

Audio
ID : 2
Format : AAC LC
Format/Info : Advanced Audio Codec Low Complexity
Codec ID : mp4a-40-2
Duration : 1 min 4 s
Source duration : 1 min 4 s
Bit rate mode : Variable
Bit rate : 256 kb/s
Maximum bit rate : 192 kb/s
Channel(s) : 2 channels
Channel layout : L R
Sampling rate : 48.0 kHz
Frame rate : 46.875 FPS (1024 SPF)
Compression mode : Lossy
Stream size : 1.95 MiB (2%)
Source stream size : 1.95 MiB (2%)
Language : English
Encoded date : UTC 2019-09-30 17:18:03

Clouds - Sanyo Xacti VPC-CG100 Video test #003 1080p 30fps




Clouds
Sanyo Xacti VPC-CG100 Video test #003 1080p 30fps
Video Stabilazer ON
Exposure m Manual

Complete name : CG100\SANY0161.MP4
Format : MPEG-4
Format profile : Base Media / Version 2
Codec ID : mp42 (mp42/avc1)
File size : 47.1 MiB
Duration : 31 s 31 ms
Overall bit rate mode : Variable
Overall bit rate : 12.7 Mb/s
Movie_More : SANYO DIGITAL CAMERA CG100
Encoded date : UTC 2019-03-19 16:56:20
Tagged date : UTC 2019-03-19 16:56:20
Origin : Digital Camera
TAGS : O DIGITAL CAMERA

Video
ID : 1
Format : AVC
Format/Info : Advanced Video Codec
Format profile : Baseline@L4
Format settings : 2 Ref Frames
Format settings, CABAC : No
Format settings, Reference frames : 2 frames
Format settings, GOP : M=1, N=30
Codec ID : avc1
Codec ID/Info : Advanced Video Coding
Duration : 31 s 31 ms
Bit rate : 12.3 Mb/s
Width : 1 920 pixels
Height : 1 080 pixels
Display aspect ratio : 16:9
Frame rate mode : Constant
Frame rate : 29.970 (30000/1001) FPS
Color space : YUV
Chroma subsampling : 4:2:0
Bit depth : 8 bits
Scan type : Progressive
Bits/(Pixel*Frame) : 0.197
Stream size : 45.4 MiB (96%)
Language : English
Encoded date : UTC 2019-03-19 16:56:20

Color range : Full
Color primaries : BT.709
Transfer characteristics : BT.709
Matrix coefficients : BT.709
Codec configuration box : avcC

Audio
ID : 2
Format : AAC LC
Format/Info : Advanced Audio Codec Low Complexity
Codec ID : mp4a-40-2
Duration : 31 s 31 ms
Source duration : 31 s 211 ms
Bit rate mode : Variable
Bit rate : 256 kb/s
Maximum bit rate : 192 kb/s
Channel(s) : 2 channels
Channel layout : L R
Sampling rate : 48.0 kHz
Frame rate : 46.875 FPS (1024 SPF)
Compression mode : Lossy
Stream size : 957 KiB (2%)
Source stream size : 962 KiB (2%)
Language : English
Encoded date : UTC 2019-03-19 16:56:20

Clouds Nei Pori Samsung S7 Edge FHD 1080 30p




Clouds Nei Pori  7/2019
Samsung S7 Edge
FHD 1080 30p


Complete name : Camera\20190704_201535.mp4
Format : MPEG-4
Format profile : Base Media / Version 2
Codec ID : mp42 (isom/mp42)
File size : 66.4 MiB
Duration : 32 s 226 ms
Overall bit rate : 17.3 Mb/s
Encoded date : UTC 2019-07-04 17:16:08
Tagged date : UTC 2019-07-04 17:16:08
xyz : +39.9808+022.6442/
com.android.version : 8.0.0

Video
ID : 1
Format : AVC
Format/Info : Advanced Video Codec
Format profile : High@L4
Format settings : CABAC / 1 Ref Frames
Format settings, CABAC : Yes
Format settings, Reference frames : 1 frame
Format settings, GOP : M=1, N=30
Codec ID : avc1
Codec ID/Info : Advanced Video Coding
Duration : 32 s 226 ms
Source duration : 32 s 247 ms
Bit rate : 17.0 Mb/s
Width : 1 920 pixels
Height : 1 080 pixels
Display aspect ratio : 16:9
Frame rate mode : Variable
Frame rate : 30.000 FPS
Minimum frame rate : 18.300 FPS
Maximum frame rate : 30.623 FPS
Color space : YUV
Chroma subsampling : 4:2:0
Bit depth : 8 bits
Scan type : Progressive
Bits/(Pixel*Frame) : 0.273
Stream size : 65.3 MiB (98%)
Source stream size : 65.4 MiB (98%)
Title : VideoHandle
Language : English
Encoded date : UTC 2019-07-04 17:16:08
Tagged date : UTC 2019-07-04 17:16:08
mdhd_Duration : 32226
Codec configuration box : avcC

Audio
ID : 2
Format : AAC LC
Format/Info : Advanced Audio Codec Low Complexity
Codec ID : mp4a-40-2
Duration : 32 s 149 ms
Bit rate mode : Constant
Bit rate : 256 kb/s
Channel(s) : 2 channels
Channel layout : L R
Sampling rate : 48.0 kHz
Frame rate : 46.875 FPS (1024 SPF)
Compression mode : Lossy
Stream size : 1 005 KiB (1%)
Title : SoundHandle
Language : English
Encoded date : UTC 2019-07-04 17:16:08

Full moon Olympus OM-D E-M10 Crop Sensor - PARAGON f/8 500mm f72 T2




Full moon 14/9/2019
Camera : Olympus OM-D E-M10 in manual , shutter 1/1000, iso 200. Crop Sensor
Lens: PARAGON f/8 500mm f72 T2 - @ f/11
video  test #002 1920 1080 30p
1:8 f= 500mm




Complete name : DCIM\105OLYMP\P9140511.MOV
Format : MPEG-4
Format profile : QuickTime
Codec ID : qt 2011.07 (qt )
File size : 524 MiB
Duration : 3 min 40 s
Overall bit rate : 19.9 Mb/s
Encoded date : UTC 2019-09-14 01:31:48
Tagged date : UTC 2019-09-14 01:31:48
TAGS : 8"R

Video
ID : 1
Format : AVC
Format/Info : Advanced Video Codec
Format profile : High@L4.1
Format settings : 2 Ref Frames
Format settings, CABAC : No
Format settings, Reference frames : 2 frames
Format settings, GOP : M=3, N=8
Codec ID : avc1
Codec ID/Info : Advanced Video Coding
Duration : 3 min 40 s
Bit rate : 18.3 Mb/s
Width : 1 920 pixels
Height : 1 080 pixels
Display aspect ratio : 16:9
Frame rate mode : Constant
Frame rate : 29.970 (30000/1001) FPS
Color space : YUV
Chroma subsampling : 4:2:0
Bit depth : 8 bits
Scan type : Progressive
Bits/(Pixel*Frame) : 0.295
Stream size : 483 MiB (92%)
Language : Japanese
Encoded date : UTC 2019-09-14 01:31:48
Tagged date : UTC 2019-09-14 01:31:48
Color range : Full
Color primaries : BT.601 NTSC
Transfer characteristics : BT.601
Matrix coefficients : BT.601
Menus : 0
Codec configuration box : avcC

Audio
ID : 2
Format : PCM
Format settings : Little / Signed
Codec ID : sowt
Duration : 3 min 40 s
Source duration : 3 min 40 s
Bit rate mode : Constant
Bit rate : 1 536 kb/s
Channel(s) : 2 channels
Channel layout : L R
Sampling rate : 48.0 kHz
Bit depth : 16 bits
Stream size : 40.4 MiB (8%)
Source stream size : 40.4 MiB (8%)
Language : Japanese
Encoded date : UTC 2019-09-14 01:31:48

Full moon Olympus OM-D E-M10 - PARAGON f/8 500mm f72 T2



Full moon 14/9/2019
Camera : Olympus OM-D E-M10 in manual , shutter 1/100, iso 250.
Lens: PARAGON f/8 500mm f72 T2 - @ f/11
video  test #002 1920 1080 30p
1:8 f= 500mm


Complete name : DCIM\105OLYMP\P9140470.MOV
Format : MPEG-4
Format profile : QuickTime
Codec ID : qt 2011.07 (qt )
File size : 766 MiB
Duration : 9 min 36 s
Overall bit rate : 11.2 Mb/s
Encoded date : UTC 2019-09-14 01:05:44

TAGS : 8"R

Video
ID : 1
Format : AVC
Format/Info : Advanced Video Codec
Format profile : High@L4.1
Format settings : 2 Ref Frames
Format settings, CABAC : No
Format settings, Reference frames : 2 frames
Format settings, GOP : M=3, N=8
Codec ID : avc1
Codec ID/Info : Advanced Video Coding
Duration : 9 min 36 s
Bit rate : 9 610 kb/s
Width : 1 920 pixels
Height : 1 080 pixels
Display aspect ratio : 16:9
Frame rate mode : Constant
Frame rate : 29.970 (30000/1001) FPS
Color space : YUV
Chroma subsampling : 4:2:0
Bit depth : 8 bits
Scan type : Progressive
Bits/(Pixel*Frame) : 0.155
Stream size : 660 MiB (86%)
Language : Japanese
Encoded date : UTC 2019-09-14 01:05:44
Tagged date : UTC 2019-09-14 01:05:44
Color range : Full
Color primaries : BT.601 NTSC
Transfer characteristics : BT.601
Matrix coefficients : BT.601
Menus : 0
Codec configuration box : avcC

Audio
ID : 2
Format : PCM
Format settings : Little / Signed
Codec ID : sowt
Duration : 9 min 36 s
Source duration : 9 min 36 s
Bit rate mode : Constant
Bit rate : 1 536 kb/s
Channel(s) : 2 channels
Channel layout : L R
Sampling rate : 48.0 kHz
Bit depth : 16 bits
Stream size : 105 MiB (14%)
Source stream size : 105 MiB (14%)
Language : Japanese
Encoded date : UTC 2019-09-14 01:05:44

Full moon Nikon 1 J1 - PARAGON f/8 500mm f72 T2



Full moon 14/9/2019
Camera : Nikon 1 J1 in manual , shutter100, iso 100.
Lens: PARAGON f/8 500mm f72 T2 - @ f/11
video  test #002 1920 1080 60i
1:8 f= 500mm



Complete name : DCIM\116NC1J1\DSC_1781.MOV
Format : MPEG-4
Format profile : QuickTime
Codec ID : qt 2007.09 (qt /niko)
File size : 171 MiB
Duration : 7 min 37 s
Overall bit rate mode : Variable
Overall bit rate : 3 135 kb/s
Encoded date : UTC 2019-09-14 02:40:30
NCDT : NCTG

Video
ID : 1
Format : AVC
Format/Info : Advanced Video Codec
Format profile : High@L4.1
Format settings : CABAC / 2 Ref Frames
Format settings, CABAC : Yes
Format settings, Reference frames : 2 frames
Codec ID : avc1
Codec ID/Info : Advanced Video Coding
Duration : 7 min 37 s
Bit rate : 3 003 kb/s
Width : 1 920 pixels
Height : 1 080 pixels
Display aspect ratio : 16:9
Frame rate mode : Constant
Frame rate : 59.940 (60000/1001) FPS
Color space : YUV
Chroma subsampling : 4:2:0
Bit depth : 8 bits
Scan type : Interlaced
Scan type, store method : Separated fields
Scan order : Top Field First
Bits/(Pixel*Frame) : 0.024
Stream size : 164 MiB (96%)
Language : English
Encoded date : UTC 2019-09-14 02:40:30

Color range : Full
Transfer characteristics : BT.470 System M
Matrix coefficients : BT.470 System B/G
Codec configuration box : avcC

Audio
ID : 2
Format : AAC LC
Format/Info : Advanced Audio Codec Low Complexity
Codec ID : mp4a-40-2
Duration : 7 min 37 s
Source duration : 7 min 37 s
Bit rate mode : Variable
Bit rate : 128 kb/s
Maximum bit rate : 192 kb/s
Channel(s) : 2 channels
Channel layout : L R
Sampling rate : 48.0 kHz
Frame rate : 46.875 FPS (1024 SPF)
Compression mode : Lossy
Stream size : 6.95 MiB (4%)
Source stream size : 6.95 MiB (4%)
Language : English
Encoded date : UTC 2019-09-14 02:40:30

Βόλτα στη Γένοβα 480p 05/08/2019 δεύτερο μέρος 2nd Part Ride to Genoa In giro per Genova



Βόλτα στη Γένοβα
δεύτερο μέρος 2nd Part
Ride to Genoa
In giro per Genova
Width : 848 pixels  Height : 480 pixels
Fake 4k actioncam only FHD 1080

Complete name : MOVI00199.avi
Format : AVI
Format/Info : Audio Video Interleave
Format profile : OpenDML 

Βόλτα στη Γένοβα 480p 05/08/2019 πρώτο μέρος 1st Part Ride to Genoa In giro per Genova



Βόλτα στη Γένοβα
πρώτο μέρος 1st Part
Ride to Genoa
In giro per Genova
Fake 4k actioncam only FHD 1080

Complete name : MOVI00166 .avi
Format : AVI
Format/Info : Audio Video Interleave
File size : 976 MiB
Duration : 8 min 39 s
Overall bit rate : 15.8 Mb/s
Writing application : Bandicut 3.1.5.509 / Cutter / HS

Video
ID : 0
Format : JPEG
Codec ID : MJPG
Duration : 8 min 39 s
Bit rate : 15.2 Mb/s
Width : 848 pixels
Height : 480 pixels
Display aspect ratio : 16:9
Frame rate : 30.000 FPS
Color space : YUV
Chroma subsampling : 4:2:0
Bit depth : 8 bits
Compression mode : Lossy
Bits/(Pixel*Frame) : 1.247
Stream size : 944 MiB (97%)

Audio
ID : 1
Format : PCM
Format settings : Little / Signed
Codec ID : 1
Duration : 8 min 39 s
Bit rate mode : Constant
Bit rate : 512 kb/s
Channel(s) : 1 channel
Sampling rate : 32.0 kHz
Bit depth : 16 bits
Stream size : 31.7 MiB (3%)
Alignment : Aligned on interleaves
Interleave, duration : 31 ms (0.93 video frame)

Rain Larissa Greece 16/08/2019 - Samsung S7 Edge UHD 4k




Rain Larissa Greece
16/08/2019
Samsung S7 Edge UHD 4k

Complete name : samsung S7\Camera\20190816_221907.mp4
Format : MPEG-4
Format profile : Base Media / Version 2
Codec ID : mp42 (isom/mp42)
File size : 119 MiB
Duration : 20 s 595 ms
Overall bit rate : 48.3 Mb/s
Encoded date : UTC 2019-08-16 19:19:28
xyz : +39.6346+022.4151/
com.android.version : 8.0.0

Video
ID : 1
Format : AVC
Format/Info : Advanced Video Codec
Format profile : High@L5.1
Format settings : CABAC / 1 Ref Frames
Format settings, CABAC : Yes
Format settings, Reference frames : 1 frame
Format settings, GOP : M=1, N=30
Codec ID : avc1
Codec ID/Info : Advanced Video Coding
Duration : 20 s 595 ms
Source duration : 20 s 608 ms
Bit rate : 48.0 Mb/s
Width : 3 840 pixels
Height : 2 160 pixels
Display aspect ratio : 16:9
Frame rate mode : Variable
Frame rate : 30.000 FPS
Minimum frame rate : 21.666 FPS
Maximum frame rate : 30.131 FPS
Color space : YUV
Chroma subsampling : 4:2:0
Bit depth : 8 bits
Scan type : Progressive
Bits/(Pixel*Frame) : 0.193
Stream size : 118 MiB (99%)
Source stream size : 118 MiB (99%)
Title : VideoHandle
Language : English
Encoded date : UTC 2019-08-16 19:19:28
mdhd_Duration : 20595
Codec configuration box : avcC

Audio
ID : 2
Format : AAC LC
Format/Info : Advanced Audio Codec Low Complexity
Codec ID : mp4a-40-2
Duration : 20 s 523 ms
Bit rate mode : Constant
Bit rate : 256 kb/s
Channel(s) : 2 channels
Channel layout : L R
Sampling rate : 48.0 kHz
Frame rate : 46.875 FPS (1024 SPF)
Compression mode : Lossy
Stream size : 641 KiB (1%)
Title : SoundHandle
Language : English
Encoded date : UTC 2019-08-16 19:19:28

Genova città deserta Seconda parte rimaniamo a casa Μένουμε Σπίτι και εμείς

rimaniamo a casa Seconda parte Genova città deserta #StayHome Γένοβα δεύτερο μέρος Μένουμε Σπίτι και εμείς 2nd Part desert Genoa Geno...