Clouds Nei Pori - Samsung S7 Edge UHD 4k




Clouds Nei Pori-  07/2019
 Samsung S7 Edge
 UHD 4k

Complete name : samsung S7\Camera\20190709_190659.mp4
Format : MPEG-4
Format profile : Base Media / Version 2
Codec ID : mp42 (isom/mp42)
File size : 352 MiB
Duration : 1 min 1 s
Overall bit rate : 48.3 Mb/s
Encoded date : UTC 2019-07-09 16:08:01
Tagged date : UTC 2019-07-09 16:08:01
xyz : +39.9817+022.6441/
com.android.version : 8.0.0

Video
ID : 1
Format : AVC
Format/Info : Advanced Video Codec
Format profile : High@L5.1
Format settings : CABAC / 1 Ref Frames
Format settings, CABAC : Yes
Format settings, Reference frames : 1 frame
Format settings, GOP : M=1, N=30
Codec ID : avc1
Codec ID/Info : Advanced Video Coding
Duration : 1 min 1 s
Source duration : 1 min 1 s
Bit rate : 48.0 Mb/s
Width : 3 840 pixels
Height : 2 160 pixels
Display aspect ratio : 16:9
Frame rate mode : Variable
Frame rate : 30.000 FPS
Minimum frame rate : 17.081 FPS
Maximum frame rate : 30.313 FPS
Color space : YUV
Chroma subsampling : 4:2:0
Bit depth : 8 bits
Scan type : Progressive
Bits/(Pixel*Frame) : 0.193
Stream size : 349 MiB (99%)
Source stream size : 350 MiB (99%)
Title : VideoHandle
Language : English
Encoded date : UTC 2019-07-09 16:08:01
Tagged date : UTC 2019-07-09 16:08:01
mdhd_Duration : 61053
Codec configuration box : avcC

Audio
ID : 2
Format : AAC LC
Format/Info : Advanced Audio Codec Low Complexity
Codec ID : mp4a-40-2
Duration : 1 min 1 s
Bit rate mode : Constant
Bit rate : 256 kb/s
Channel(s) : 2 channels
Channel layout : L R
Sampling rate : 48.0 kHz
Frame rate : 46.875 FPS (1024 SPF)
Compression mode : Lossy
Stream size : 1.86 MiB (1%)
Title : SoundHandle
Language : English
Encoded date : UTC 2019-07-09 16:08:01

3ο Πανσέληνος 15 Αυγούστου 2019 Aug Full moon



Πανσέληνος 15 Αυγούστου 2019  3ο  video
Full moon
Camera Olympus OM-D E-M10
 ISO 200 f5,6 Zoom Crop Sensor
Lens Panasonic Lumix H-FS1410 M4/3 14-140MM POWER O.I,S. ΟΝ

2ο Πανσέληνος 15 Αυγούστου 2019 Aug Full Monn



Πανσέληνος 15 Αυγούστου 2019  2ο  video
Full Monn
Camera Olympus OM-D E-M10
 ISO 200 f5,6 Zoom Crop Sensor
Lens Panasonic Lumix H-FS1410 M4/3 14-140MM POWER O.I,S. ΟΝ

1ο Πανσέληνος 15 Αυγούστου 2019 Full moon



Πανσέληνος 15 Αυγούστου 2019  1ο  video
Camera Olympus OM-D E-M10
 ISO 200 f5,6 Zoom Crop Sensor
Lens Panasonic Lumix H-FS1410 M4/3 14-140MM POWER O.I,S. ΟΝ

Δυο νύχτες Γιώτα Νέγκα 5 Φεστιβάλ Πηνειού 2019 - Lumix DMC-GX80 4k UHD Canon FL 50mm f/1.4



Δυο νύχτες ανταμώσανε
πάνω στα δάκρυά μου
Η νύχτα που σε γνώρισα
κι η νύχτα που χωρίσαμε
Και κλαιν' τα όνειρά μου
Θα πνίξουν την καρδιά μου
Χωρίς την αγάπη σου θα ήμουνα μόνος
η πίκρα θα μ έπνιγε το δάκρυ ο πόνος
εσύ με οδήγησες στη γη στην ελπίδα
του κόσμου το νόημα στα μάτια σου είδα
Αλίμονο σ αυτούς που δεν αγάπησαν
αλίμονο, αλίμονο, αλίμονο
αλίμονο σ αυτούς που δε δακρύσανε ζωή
την ομορφιά σου δε γνωρίσανε ζωή
την ομορφιά σου δε γνωρίσανε

Κάπου νυχτώνει Γιώτα Νέγκα 4 :Φεστιβάλ Πηνειού 2019 - DMC-GX80 4k UHD Canon FL 50mm f/1.4




Κάπου νυχτώνει
Φεστιβάλ Πηνειού 2019 video 4
Γιώτα Νέγκα
Panasonic Lumix DMC-GX80
4k UHD
Canon FL 50mm f/1.4 @ 1.8

Γύρνα τις ώρες που χάθηκαν απόψε
κοίτα που φεύγεις πώς κλαίει το δειλινό

Κάπου νυχτώνει κι ο ήλιος παγώνει
χάνεται ο δρόμος και πού να σταθώ
κάπου βραδιάζει μην κλαις δεν πειράζει
πες πως τελειώνει ο κόσμος εδώ

Αγέρας παίρνει απόψε τη ζωή μου
κλείνω τα μάτια που φεύγεις να μη δω

Κάπου νυχτώνει κι ο ήλιος παγώνει
χάνεται ο δρόμος και πού να σταθώ
κάπου βραδιάζει μην κλαις δεν πειράζει
πες πως τελειώνει ο κόσμος εδώ

Θα κλείσω τα μάτια Γιώτα Νέγκα 6 Φεστιβάλ Πηνειού 2019 - : Panasonic Lumix DMC-GX80 4k UHD Canon FL 50mm f/1.4




Φεστιβάλ Πηνειού 2019 video 6
Γιώτα Νέγκα
Panasonic Lumix DMC-GX80
4k UHD
Canon FL 50mm f/1.4 @ 1.8



Σε πότισα το πιο γλυκό μου δάκρυ
με πότισες τον πιο γλυκό καημό
σε άγγιξα στου ονείρου μου την άκρη
και στράγγιξα τον πρώτο στεναγμό

Θα κλείσω τα μάτια θ’ απλώσεις τα χέρια
να βρουν να φωλιάσουν λευκά περιστέρια
αγάπη μου πρώτη αγάπη μεγάλη
θα κλείσω τα μάτια κι όπου με βγάλει

Λαχτάρησα ζωή απ’ τη ζωή σου
λαχτάρησες το φως του αυγερινού
στα σύννεφα περπάτησα μαζί σου
κι ανοίξανε οι πόρτες τ’ ουρανού

Θα κλείσω τα μάτια θ’ απλώσεις τα χέρια
να βρουν να φωλιάσουν λευκά περιστέρια
αγάπη μου πρώτη αγάπη μεγάλη
θα κλείσω τα μάτια κι όπου με βγάλει

Genova città deserta Seconda parte rimaniamo a casa Μένουμε Σπίτι και εμείς

rimaniamo a casa Seconda parte Genova città deserta #StayHome Γένοβα δεύτερο μέρος Μένουμε Σπίτι και εμείς 2nd Part desert Genoa Geno...