Sun flares Belfry testing zoom 10x : Canon HG10 video test AVCHD 1080 50i



Sun flares belfry trees testing zoom 10x Camera : Canon HG10 Lens: Canon Hd video lens 6.1-61mm f/1.8-2.8. 35 mm equivalent: : 43.6-436 mm Mode AUTO stabilizer ON video test 1080 FHD 1440 x 1080 50i Complete name : Desktop\hg10\00013.MTS Format : BDAV Format/Info : Blu-ray Video File size : 118 MiB Duration : 1 min 3 s Overall bit rate mode : Variable Overall bit rate : 15.5 Mb/s Maximum Overall bit rate : 18.0 Mb/s Recorded date : 2020-01-08 15:46:18+02:00 Writing application : Canon Video ID : 4113 (0x1011) Menu ID : 1 (0x1) Format : AVC Format/Info : Advanced Video Codec Format profile : High@L4 Format settings : CABAC / 2 Ref Frames Format settings, CABAC : Yes Format settings, Reference frames : 2 frames Format settings, GOP : M=3, N=12 Codec ID : 27 Duration : 1 min 3 s Bit rate mode : Variable Bit rate : 14.6 Mb/s Maximum bit rate : 16.0 Mb/s Width : 1 440 pixels Height : 1 080 pixels Display aspect ratio : 16:9 Frame rate : 25.000 FPS Color space : YUV Chroma subsampling : 4:2:0 Bit depth : 8 bits Scan type : Interlaced Scan type, store method : Separated fields Scan order : Top Field First Bits/(Pixel*Frame) : 0.376 Stream size : 111 MiB (94%) Audio ID : 4352 (0x1100) Menu ID : 1 (0x1) Format : AC-3 Format/Info : Audio Coding 3 Commercial name : Dolby Digital Codec ID : 129 Duration : 1 min 3 s Bit rate mode : Constant Bit rate : 256 kb/s Channel(s) : 2 channels Channel layout : L R Sampling rate : 48.0 kHz Frame rate : 31.250 FPS (1536 SPF) Compression mode : Lossy Delay relative to video : -80 ms Stream size : 1.95 MiB (2%) Service kind : Complete Main

Moon : Canon HG10 video test AVCHD 1080 25fps




Moon Camera : Canon HG10 Lens: Canon Hd video lens 6.1-61mm f/1.8-2.8. 35 mm equivalent: : 43.6-436 mm Mode Tv shutter 1/2000 MF exposure -11 stabilizer ON video test 1080 FHD 1440 x 1080 25fps Complete name : Desktop\hg10\00012.MTS Format : BDAV Format/Info : Blu-ray Video File size : 136 MiB Duration : 1 min 11 s Overall bit rate mode : Variable Overall bit rate : 16.1 Mb/s Maximum Overall bit rate : 18.0 Mb/s Recorded date : 2020-01-07 22:31:15+02:00 Writing application : Canon Video ID : 4113 (0x1011) Menu ID : 1 (0x1) Format : AVC Format/Info : Advanced Video Codec Format profile : High@L4 Format settings : CABAC / 2 Ref Frames Format settings, CABAC : Yes Format settings, Reference frames : 2 frames Format settings, GOP : M=3, N=12 Codec ID : 27 Duration : 1 min 10 s Bit rate mode : Variable Bit rate : 15.2 Mb/s Maximum bit rate : 16.0 Mb/s Width : 1 440 pixels Height : 1 080 pixels Display aspect ratio : 16:9 Frame rate : 25.000 FPS Color space : YUV Chroma subsampling : 4:2:0 Bit depth : 8 bits Scan type : Interlaced Scan type, store method : Separated fields Scan order : Top Field First Bits/(Pixel*Frame) : 0.391 Stream size : 129 MiB (94%) Audio ID : 4352 (0x1100) Menu ID : 1 (0x1) Format : AC-3 Format/Info : Audio Coding 3 Commercial name : Dolby Digital Codec ID : 129 Duration : 1 min 11 s Bit rate mode : Constant Bit rate : 256 kb/s Channel(s) : 2 channels Channel layout : L R Sampling rate : 48.0 kHz Frame rate : 31.250 FPS (1536 SPF) Compression mode : Lossy Delay relative to video : -80 ms Stream size : 2.17 MiB (2%) Service kind : Complete Main

4k UHD Fireworks new years eve Larissa 2020 πυροτεχνήματα Λάρισα πρωτοχρονιά Lumix DMC-GX80




Fireworks new years eve Larissa 2020 2020 πυροτεχνήματα Λάρισα πρωτοχρονιά Camera : Panasonic Lumix DMC-GX80 Lens: Canon FL 50mm f/1.4 @f/2 video test 4k UHD 3840 x 2160 25fps

360VR Fireworks new years eve Larissa 2020 πυροτεχνήματα Λάρισα πρωτοχρονιά Ricoh Theta S 1080




360VR Fireworks new years eve Larissa 2020 2020 πυροτεχνήματα Λάρισα πρωτοχρονιά 360VR Ricoh Theta S 1080 Complete name : Desktop\R0013610_20200101000039_er.MP4 Format : MPEG-4 Format profile : Base Media Codec ID : isom (isom/iso2/avc1/mp41) File size : 582 MiB Duration : 5 min 6 s Overall bit rate : 15.9 Mb/s Encoded date : UTC 2019-12-31 22:05:46 Writing application : Lavf58.12.100 xyz : +39,6342+22,4098/ Video ID : 1 Format : AVC Format/Info : Advanced Video Codec Format profile : Baseline@L4 Format settings : 2 Ref Frames Format settings, CABAC : No Format settings, RefFrames : 2 frames Format settings, GOP : M=1, N=30 Codec ID : avc1 Codec ID/Info : Advanced Video Coding Duration : 5 min 6 s Bit rate : 15.8 Mb/s Width : 1 920 pixels Height : 960 pixels Display aspect ratio : 2.000 Frame rate mode : Variable Frame rate : 29.970 (30000/1001) FPS Minimum frame rate : 29.970 FPS Maximum frame rate : 30.000 FPS Color space : YUV Chroma subsampling : 4:2:0 Bit depth : 8 bits Scan type : Progressive Bits/(Pixel*Frame) : 0.286 Stream size : 576 MiB (99%) Encoded date : UTC 2019-12-31 22:05:46 Color range : Full Codec configuration box : avcC Audio ID : 2 Format : AAC LC Format/Info : Advanced Audio Codec Low Complexity Codec ID : mp4a-40-2 Duration : 5 min 6 s Bit rate mode : Constant Bit rate : 132 kb/s Channel(s) : 1 channel Channel layout : C Sampling rate : 44.1 kHz Frame rate : 43.066 FPS (1024 SPF) Compression mode : Lossy Stream size : 4.74 MiB (1%) Default : Yes Alternate group : 1 Encoded date : UTC 2019-12-31 22:05:46

Fireworks new years eve Larissa 2020 πυροτεχνήματα Λάρισα πρωτοχρονιά Samsung NX20




Fireworks new years eve Larissa 2020 2020 πυροτεχνήματα Λάρισα πρωτοχρονιά Camera : Samsung NX20 Crop factor 1.5 Lens : Super Paragon PMC II AUTO 1:3.5 f=24mm Ø52 Canon FD @ f/4 36mm equivalent 35mm Mode : A ISO 800 EV 0,0 Video Stabilization No Video 1920x810 @ 24fps Complete name : Desktop\SAM_4423.MP4 Format : MPEG-4 Format profile : Base Media / Version 2 Codec ID : mp42 (mp42/isom/avc1) File size : 103 MiB Duration : 4 min 20 s Overall bit rate : 3 331 kb/s Video ID : 1 Format : AVC Format/Info : Advanced Video Codec Format profile : High@L4.1 Format settings : 2 Ref Frames Format settings, CABAC : No Format settings, RefFrames : 2 frames Format settings, GOP : M=1, N=24 Codec ID : avc1 Codec ID/Info : Advanced Video Coding Duration : 4 min 20 s Bit rate : 3 198 kb/s Width : 1 920 pixels Height : 810 pixels Display aspect ratio : 2.40:1 Frame rate mode : Constant Frame rate : 24.000 FPS Color space : YUV Chroma subsampling : 4:2:0 Bit depth : 8 bits Scan type : Progressive Bits/(Pixel*Frame) : 0.086 Stream size : 99.2 MiB (96%) Language : English Codec configuration box : avcC Audio ID : 2 Format : AAC LC Format/Info : Advanced Audio Codec Low Complexity Codec ID : mp4a-40-2 Duration : 4 min 20 s Bit rate mode : Constant Bit rate : 128 kb/s Channel(s) : 2 channels Channel layout : L R Sampling rate : 32.0 kHz Frame rate : 31.250 FPS (1024 SPF) Compression mode : Lossy Stream size : 3.92 MiB (4%) Language : English

Part3 Χριστούγεννα 2019 κεντρική πλατεία Λαρίσης Cinema with s7 edge 4K HDR 25 fps




Χριστούγεννα 2019 Κεντρική πλατεία Λαρίσης Part3 Cinema with s7 edge 4K HDR 25 fps

Part2 Χριστούγεννα 2019 κεντρική πλατεία Λαρίσης Cinema with s7 edge 4K HDR 25 fps




Χριστούγεννα 2019 Κεντρική πλατεία Λαρίσης Part2 Cinema with s7 edge 4K HDR 25 fps

Part1 Χριστούγεννα 2019 κεντρική πλατεία Λαρίσης Cinema with s7 edge 4K HDR 25 fps




Χριστούγεννα 2019 Κεντρική πλατεία Λαρίσης Part1 Cinema with s7 edge 4K HDR 25 fps

Sunset Clouds Canon 250D video test with Helios-44-2 2/58 M42 adapted to EOS 4K @ 25fps sl3




Sunset Clouds Camera : Canon EOS 250d 4K 25p crop 2.6 @ 4K Lens : Helios-44-2 58mm f/2 Ø52 M42 @ f/2 130mm equivalent 35mm Mode A Iso 800 50mm 4k cropped 2.6x video stabilisation OFF canon sl3 adapted Complete name : Desktop\104PHOTO\MVI_7785.MP4 Format : MPEG-4 Format profile : Base Media / Version 2 Codec ID : mp42 (mp42/avc1/CAEP) File size : 929 MiB Duration : 1 min 5 s Overall bit rate : 119 Mb/s Video ID : 1 Format : AVC Format/Info : Advanced Video Codec Format profile : High@L5.1 Format settings : 2 Ref Frames Format settings, CABAC : No Format settings, RefFrames : 2 frames Format settings, GOP : M=3, N=12 Codec ID : avc1 Codec ID/Info : Advanced Video Coding Duration : 1 min 5 s Bit rate : 119 Mb/s Width : 3 840 pixels Height : 2 160 pixels Display aspect ratio : 16:9 Frame rate mode : Constant Frame rate : 25.000 FPS Color space : YUV Chroma subsampling : 4:2:0 Bit depth : 8 bits Scan type : Progressive Bits/(Pixel*Frame) : 0.573 Stream size : 927 MiB (100%) Language : English Color range : Full Color primaries : BT.709 Transfer characteristics : BT.709 Matrix coefficients : BT.709 Codec configuration box : avcC Audio ID : 2 Format : AAC LC Format/Info : Advanced Audio Codec Low Complexity Codec ID : mp4a-40-2 Duration : 1 min 5 s Bit rate mode : Constant Bit rate : 256 kb/s Channel(s) : 2 channels Channel layout : L R Sampling rate : 48.0 kHz Frame rate : 46.875 FPS (1024 SPF) Compression mode : Lossy Stream size : 1.98 MiB (0%) Language : English

Sunset Clouds Canon 250D video test with ARSAT H 50mm 1:2 Nikon AI adapted to EOS 4K @ 25fps sl3




Sunset Clouds Camera : Canon EOS 250d 4K 25p crop 2.6 @ 4K Lens : ARSAT H 50mm f/2 Ø52 Nikon AI @ f/2 130mm equivalent 35mm Mode A Iso 800 50mm 4k cropped 2.6x video stabilisation OFF canon sl3 adapted Complete name : Desktop\104PHOTO\MVI_7771.MP4 Format : MPEG-4 Format profile : Base Media / Version 2 Codec ID : mp42 (mp42/avc1/CAEP) File size : 924 MiB Duration : 1 min 5 s Overall bit rate : 119 Mb/s Video ID : 1 Format : AVC Format/Info : Advanced Video Codec Format profile : High@L5.1 Format settings : 2 Ref Frames Format settings, CABAC : No Format settings, RefFrames : 2 frames Format settings, GOP : M=3, N=12 Codec ID : avc1 Codec ID/Info : Advanced Video Coding Duration : 1 min 5 s Bit rate : 119 Mb/s Width : 3 840 pixels Height : 2 160 pixels Display aspect ratio : 16:9 Frame rate mode : Constant Frame rate : 25.000 FPS Color space : YUV Chroma subsampling : 4:2:0 Bit depth : 8 bits Scan type : Progressive Bits/(Pixel*Frame) : 0.573 Stream size : 922 MiB (100%) Language : English Color range : Full Color primaries : BT.709 Transfer characteristics : BT.709 Matrix coefficients : BT.709 Codec configuration box : avcC Audio ID : 2 Format : AAC LC Format/Info : Advanced Audio Codec Low Complexity Codec ID : mp4a-40-2 Duration : 1 min 5 s Bit rate mode : Constant Bit rate : 256 kb/s Channel(s) : 2 channels Channel layout : L R Sampling rate : 48.0 kHz Frame rate : 46.875 FPS (1024 SPF) Compression mode : Lossy Stream size : 1.97 MiB (0%) Language : English

Sunset Clouds star : Samsung NX20 video test with Helios-44-2 2/58 M42 adapted to NX @ 24fps




Sunset Clouds Larissa Greece Camera : Samsung NX20 Crop factor 1.5 Lens : Helios-44-2 58mm f/2 Ø52 M42 @ f/2 75mm equivalent 35mm Mode : A ISO 400 EV 0,0 Video Stabilization No Video 1920x810 @ 24fps Complete name : Desktop\104PHOTO\SAM_4395.MP4 Format : MPEG-4 Format profile : Base Media / Version 2 Codec ID : mp42 (mp42/isom/avc1) File size : 224 MiB Duration : 2 min 50 s Overall bit rate : 11.0 Mb/s Video ID : 1 Format : AVC Format/Info : Advanced Video Codec Format profile : High@L4.1 Format settings : 2 Ref Frames Format settings, CABAC : No Format settings, RefFrames : 2 frames Format settings, GOP : M=1, N=24 Codec ID : avc1 Codec ID/Info : Advanced Video Coding Duration : 2 min 50 s Bit rate : 10.9 Mb/s Width : 1 920 pixels Height : 810 pixels Display aspect ratio : 2.40:1 Frame rate mode : Constant Frame rate : 24.000 FPS Color space : YUV Chroma subsampling : 4:2:0 Bit depth : 8 bits Scan type : Progressive Bits/(Pixel*Frame) : 0.292 Stream size : 221 MiB (99%) Language : English Codec configuration box : avcC Audio ID : 2 Format : AAC LC Format/Info : Advanced Audio Codec Low Complexity Codec ID : mp4a-40-2 Duration : 2 min 50 s Bit rate mode : Constant Bit rate : 128 kb/s Channel(s) : 2 channels Channel layout : L R Sampling rate : 32.0 kHz Frame rate : 31.250 FPS (1024 SPF) Compression mode : Lossy Stream size : 2.58 MiB (1%) Language : English

@ f/4 Sunset Clouds : Samsung NX20 video test with ARSAT H 50mm 1:2 Nikon AI adapted to NX @ 24fps




Sunset Clouds Larissa Greece Camera : Samsung NX20 Crop factor 1.5 Lens : ARSAT H 50mm f/2 Ø52 Nikon AI @ f/4 75mm equivalent 35mm Mode : A ISO 400 EV 0,0 Video Stabilization No Video 1920x810 @ 24fps Complete name : Desktop\104PHOTO\SAM_4394.MP4 Format : MPEG-4 Format profile : Base Media / Version 2 Codec ID : mp42 (mp42/isom/avc1) File size : 89.6 MiB Duration : 1 min 16 s Overall bit rate : 9 815 kb/s Video ID : 1 Format : AVC Format/Info : Advanced Video Codec Format profile : High@L4.1 Format settings : 2 Ref Frames Format settings, CABAC : No Format settings, RefFrames : 2 frames Format settings, GOP : M=1, N=24 Codec ID : avc1 Codec ID/Info : Advanced Video Coding Duration : 1 min 16 s Bit rate : 9 714 kb/s Width : 1 920 pixels Height : 810 pixels Display aspect ratio : 2.40:1 Frame rate mode : Constant Frame rate : 24.000 FPS Color space : YUV Chroma subsampling : 4:2:0 Bit depth : 8 bits Scan type : Progressive Bits/(Pixel*Frame) : 0.260 Stream size : 88.3 MiB (99%) Language : English Codec configuration box : avcC Audio ID : 2 Format : AAC LC Format/Info : Advanced Audio Codec Low Complexity Codec ID : mp4a-40-2 Duration : 1 min 16 s Bit rate mode : Constant Bit rate : 128 kb/s Channel(s) : 2 channels Channel layout : L R Sampling rate : 32.0 kHz Frame rate : 31.250 FPS (1024 SPF) Compression mode : Lossy Stream size : 1.15 MiB (1%) Language : English

B. Sunset Clouds : Pentax Q video test with ARSAT H 50mm 1:2 Nikon AI adapted to Pq 1080 @ 30fps




Sunset Clouds Larissa Greece Camera : Pentax Q 12.4 Mp 1/2.3-inch CMOS Crop factor 5.62 Lens : ARSAT H 50mm f/2 Ø52 Nikon AI @ f/2 326mm equivalent 35mm Mode : M ISO 125 EV 0,0 Shutter 1/50 Video Stabilization OFF Video 1920x1080 @ 30fps Complete name : Desktop\IMGP8634.MOV Format : MPEG-4 Format profile : QuickTime Codec ID : qt 2007.09 (qt /####) File size : 154 MiB Duration : 1 min 31 s Overall bit rate mode : Variable Overall bit rate : 14.1 Mb/s thmb : AX Video ID : 1 Format : AVC Format/Info : Advanced Video Codec Format profile : Main@L4 Format settings : CABAC / 2 Ref Frames Format settings, CABAC : Yes Format settings, RefFrames : 2 frames Codec ID : avc1 Codec ID/Info : Advanced Video Coding Duration : 1 min 31 s Source duration : 1 min 31 s Bit rate mode : Variable Bit rate : 12.5 Mb/s Maximum bit rate : 20.0 Mb/s Width : 1 920 pixels Height : 1 080 pixels Display aspect ratio : 16:9 Frame rate mode : Constant Frame rate : 29.970 (30000/1001) FPS Color space : YUV Chroma subsampling : 4:2:0 Bit depth : 8 bits Scan type : Progressive Bits/(Pixel*Frame) : 0.202 Stream size : 137 MiB (89%) Source stream size : 137 MiB (89%) Language : English mdhd_Duration : 91647 Codec configuration box : avcC Audio ID : 2 Format : PCM Format settings : Little / Signed Codec ID : sowt Duration : 1 min 31 s Bit rate mode : Constant Bit rate : 1 536 kb/s Channel(s) : 2 channels Channel layout : L R Sampling rate : 48.0 kHz Bit depth : 16 bits Stream size : 16.8 MiB (11%) Language : English mdhd_Duration : 91647

A. Christmass Sunset Clouds : Pentax Q video test with ARSAT H 50mm 1:2 Nikon AI to Pq 1080 @ 30fps




Christmass Sunset Clouds Larissa Greece Camera : Pentax Q 12.4 Mp 1/2.3-inch CMOS Crop factor 5.62 Lens : ARSAT H 50mm f/2 Ø52 Nikon AI @ f/2 326mm equivalent 35mm Helios 81H Mode : M ISO 125 EV 0,0 Shutter 1/50 Video Stabilization OFF Video 1920x1080 @ 30fps Complete name : Desktop\IMGP8633.MOV Format : MPEG-4 Format profile : QuickTime Codec ID : qt 2007.09 (qt /####) File size : 143 MiB Duration : 1 min 24 s Overall bit rate mode : Variable Overall bit rate : 14.1 Mb/s thmb : AX Video ID : 1 Format : AVC Format/Info : Advanced Video Codec Format profile : Main@L4 Format settings : CABAC / 2 Ref Frames Format settings, CABAC : Yes Format settings, RefFrames : 2 frames Codec ID : avc1 Codec ID/Info : Advanced Video Coding Duration : 1 min 24 s Source duration : 1 min 24 s Bit rate mode : Variable Bit rate : 12.5 Mb/s Maximum bit rate : 20.0 Mb/s Width : 1 920 pixels Height : 1 080 pixels Display aspect ratio : 16:9 Frame rate mode : Constant Frame rate : 29.970 (30000/1001) FPS Color space : YUV Chroma subsampling : 4:2:0 Bit depth : 8 bits Scan type : Progressive Bits/(Pixel*Frame) : 0.202 Stream size : 127 MiB (89%) Source stream size : 127 MiB (89%) Language : English mdhd_Duration : 84863 Codec configuration box : avcC Audio ID : 2 Format : PCM Format settings : Little / Signed Codec ID : sowt Duration : 1 min 24 s Bit rate mode : Constant Bit rate : 1 536 kb/s Channel(s) : 2 channels Channel layout : L R Sampling rate : 48.0 kHz Bit depth : 16 bits Stream size : 15.5 MiB (11%) Language : English mdhd_Duration : 84863

Sunset : Pentax Q video test with Jupiter-37A 135mm f3.5 M42 adapted to Pq 1080 30fps 758mm @ 35mm





Hard to handle by hand / Sunset Larissa Greece Camera : Pentax Q 12.4 Mp 1/2.3-inch CMOS Crop factor 5.62 Lens : Jupiter-37A 135mm f3.5 Ø52 M42 @ f/8 758mm equivalent 35mm Mode : M ISO 125 EV 0,0 Shutter 1/30 Video Stabilization OFF Video 1920x1080 @ 30fps Complete name : DCIM\125_2312\IMGP8617.MOV Format : MPEG-4 Format profile : QuickTime Codec ID : qt 2007.09 File size : 186 MiB Duration : 1 min 51 s Overall bit rate mode : Variable Overall bit rate : 14.1 Mb/s thmb : AX Video ID : 1 Format : AVC Format/Info : Advanced Video Codec Format profile : Main@L4 Format settings : CABAC / 2 Ref Frames Format settings, CABAC : Yes Format settings, Reference frames : 2 frames Codec ID : avc1 Codec ID/Info : Advanced Video Coding Duration : 1 min 51 s Source duration : 1 min 51 s Bit rate mode : Variable Bit rate : 12.5 Mb/s Maximum bit rate : 20.0 Mb/s Width : 1 920 pixels Height : 1 080 pixels Display aspect ratio : 16:9 Frame rate mode : Constant Frame rate : 29.970 (30000/1001) FPS Color space : YUV Chroma subsampling : 4:2:0 Bit depth : 8 bits Scan type : Progressive Bits/(Pixel*Frame) : 0.201 Stream size : 166 MiB (89%) Source stream size : 166 MiB (89%) Language : English mdhd_Duration : 111103 Codec configuration box : avcC Audio ID : 2 Format : PCM Format settings : Little / Signed Codec ID : sowt Duration : 1 min 51 s Bit rate mode : Constant Bit rate : 1 536 kb/s Channel(s) : 2 channels Channel layout : L R Sampling rate : 48.0 kHz Bit depth : 16 bits Stream size : 20.3 MiB (11%) Language : English mdhd_Duration : 111103

Central square Larissa. 2019 Christmas tree 🎄 Canon 250D 4K 25p




2019 Christmas tree 🎄 Central square Larissa Camera : Canon EOS 250d 4K 25p Lens : Canon Zoom Lens EF-S 18-55mm f/3.5-5.6 III autofocus ON Mode A Iso 800 18mm 4k cropped 2.6x video stabilisation OFF Complete name : Canon EOS 250D\Video\MVI_7763.MP4 Format : MPEG-4 Format profile : Base Media / Version 2 Codec ID : mp42 (mp42/avc1/CAEP) File size : 1.05 GiB Duration : 1 min 15 s Overall bit rate : 119 Mb/s Encoded date : UTC 2019-12-23 13:57:08 Video ID : 1 Format : AVC Format/Info : Advanced Video Codec Format profile : High@L5.1 Format settings : 2 Ref Frames Format settings, CABAC : No Format settings, Reference frames : 2 frames Format settings, GOP : M=3, N=12 Codec ID : avc1 Codec ID/Info : Advanced Video Coding Duration : 1 min 15 s Bit rate : 119 Mb/s Width : 3 840 pixels Height : 2 160 pixels Display aspect ratio : 16:9 Frame rate mode : Constant Frame rate : 25.000 FPS Color space : YUV Chroma subsampling : 4:2:0 Bit depth : 8 bits Scan type : Progressive Bits/(Pixel*Frame) : 0.572 Stream size : 1.05 GiB (100%) Language : English Color range : Full Color primaries : BT.709 Transfer characteristics : BT.709 Matrix coefficients : BT.709 Codec configuration box : avcC Audio ID : 2 Format : AAC LC Format/Info : Advanced Audio Codec Low Complexity Codec ID : mp4a-40-2 Duration : 1 min 15 s Bit rate mode : Constant Bit rate : 256 kb/s Channel(s) : 2 channels Channel layout : L R Sampling rate : 48.0 kHz Frame rate : 46.875 FPS (1024 SPF) Compression mode : Lossy Stream size : 2.29 MiB (0%) Language : English

2019 Christmas tree 🎄 Central.square Larissa. 360VR Ricoh Theta S 1080





2019 Christmas tree 🎄 Central.square Larissa. 360VR Ricoh Theta S 1080

2019 Christmas tree 🎄 Central square Larissa. Gear 360 sm-c200 1080 60p front camera stereo





2019 Christmas tree 🎄 Central square Larissa Gear 360 sm-c200 2016 1080 60p Complete name :SAM_102_0157.mp4 Format : MPEG-4 Format profile : Base Media / Version 2 Codec ID : mp42 (isom/mp42) File size : 981 MiB Duration : 2 min 16 s Overall bit rate mode : Variable Overall bit rate : 60.5 Mb/s Encoded date : UTC 2019-12-21 23:26:45 xyz : +39.6372+022.4150/ Video ID : 1 Format : AVC Format/Info : Advanced Video Codec Format profile : Baseline@L5 Format settings : 1 Ref Frames Format settings, CABAC : No Format settings, Reference frames : 1 frame Format settings, GOP : M=1, N=60 Codec ID : avc1 Codec ID/Info : Advanced Video Coding Duration : 2 min 16 s Bit rate : 60.3 Mb/s Width : 1 920 pixels Height : 1 080 pixels Display aspect ratio : 16:9 Frame rate mode : Variable Frame rate : 59.940 FPS Minimum frame rate : 59.920 FPS Maximum frame rate : 59.960 FPS Color space : YUV Chroma subsampling : 4:2:0 Bit depth : 8 bits Scan type : Progressive Bits/(Pixel*Frame) : 0.485 Stream size : 978 MiB (100%) Title : VideoHandle Language : English mdhd_Duration : 136136 Codec configuration box : avcC Audio ID : 2 Format : AAC LC Format/Info : Advanced Audio Codec Low Complexity Codec ID : mp4a-40-2 Duration : 2 min 16 s Source duration : 2 min 16 s Source_Duration_FirstFrame : 85 ms Bit rate mode : Variable Bit rate : 192 kb/s Channel(s) : 2 channels Channel layout : L R Sampling rate : 48.0 kHz Frame rate : 46.875 FPS (1024 SPF) Compression mode : Lossy Stream size : 3.09 MiB (0%) Source stream size : 3.09 MiB (0%) Title : SoundHandle Language : English mdhd_Duration : 136064

2019 Christmas tree 🎄 Central square Larissa. Gear 360 sm-c200 1440 30p front camera stereo



2019 Christmas tree 🎄 Central.square Larissa Gear 360 sm-c200 2016 1440 30p Complete name : SAM_102_0156.mp4 Format : MPEG-4 Format profile : Base Media / Version 2 Codec ID : mp42 (isom/mp42) File size : 905 MiB Duration : 2 min 5 s Overall bit rate mode : Variable Overall bit rate : 60.4 Mb/s Encoded date : UTC 2019-12-21 23:23:58 xyz : +39.6372+022.4150/ Video ID : 1 Format : AVC Format/Info : Advanced Video Codec Format profile : Baseline@L5 Format settings : 1 Ref Frames Format settings, CABAC : No Format settings, Reference frames : 1 frame Format settings, GOP : M=1, N=30 Codec ID : avc1 Codec ID/Info : Advanced Video Coding Duration : 2 min 5 s Bit rate : 60.2 Mb/s Width : 2 560 pixels Height : 1 440 pixels Display aspect ratio : 16:9 Frame rate mode : Constant Frame rate : 29.970 (30000/1001) FPS Color space : YUV Chroma subsampling : 4:2:0 Bit depth : 8 bits Scan type : Progressive Bits/(Pixel*Frame) : 0.545 Stream size : 903 MiB (100%) Title : VideoHandle Language : English Codec configuration box : avcC Audio ID : 2 Format : AAC LC Format/Info : Advanced Audio Codec Low Complexity Codec ID : mp4a-40-2 Duration : 2 min 5 s Source duration : 2 min 5 s Source_Duration_FirstFrame : 149 ms Bit rate mode : Variable Bit rate : 192 kb/s Channel(s) : 2 channels Channel layout : L R Sampling rate : 48.0 kHz Frame rate : 46.875 FPS (1024 SPF) Compression mode : Lossy Stream size : 2.85 MiB (0%) Source stream size : 2.85 MiB (0%) Title : SoundHandle Language : English mdhd_Duration : 125483

2019 Christmas tree 🎄 Central.square Larissa. 360VR Gear 360 sm-c200 4K




2019 Christmas tree 🎄 Central.square Larissa 360VR Gear 360 sm-c200 2016 4K


Σαββατόβραδο στο Πάρκο των Ευχών Λάρισας 2019 14/12 wises park Larissa





Σαββατόβραδο στο Πάρκο των Ευχών Λάρισα 14/12/2019 Zoom Q8 auto mode Don’t forget to click the bell to turn on post notifications! Nikolaos Instagram: https://www.instagram.com/sakellarisnikolaos/ Twitter: https://twitter.com/SakellarisNiko Facebook: https://www.facebook.com/nikolaos.sakellaris/ Blog: https://video-photo-blog.blogspot.com/ Το πάρκο των ευχών 2017 Τα Χριστούγεννα στη Λάρισα είναι διαφορετικά!!! Για έναν ολόκληρο μήνα, ο Δήμος Λαρισαίων λειτουργεί το Πάρκο των Ευχών, όπου κάθε όνειρο και κάθε ευχή γίνετε πραγματικότητα! Η Λίμνη των Χριστουγέννων με το τεράστιο δέντρο της, το πολύχρωμο Fun Park, το τρενάκι του Βόρειου Πόλου, το Σπίτι του Άη Βασίλη, το Εργαστήρι των Ξωτικών, η Ακαδημία των Μικρών Μάγων, το Παλάτι της Βασίλισσας του Πάγου και ένα σωρό άλλες εκπλήξεις, στο Πάρκο Αλκαζάρ, φωτάκια, έλατα, χιόνι, αστέρια, άγγελοι, μπάλες… προσφέρει σε όλους μοναδικές στιγμές. Ξετρελαίνει τους μικρούς και κάνει τους μεγάλους να αφεθούν στη χαρά και τη λάμψη των γιορτών.

Christmas light 💡 balls : Pentax Q Vivitar-55MM 1:2.8 MC MACRO Ø62 FD to PQ Night Video Part2





Part2 Night Video Christmas light 💡 balls Larissa Greece Camera : Pentax Q 12.4 Mp 1/2.3-inch CMOS Crop factor 5.62 Lens : Vivitar-55MM 1:2.8 MC MACRO Ø62 FD @ f/2.8 310mm equivalent 35mm Mode : M Shutter 1/100 ISO 400 EV 0,0 Video Stabilization OFF Video 1920x1080 @ 30fps Complete name : I:\DCIM\120_0612\IMGP8563.MOV Format : MPEG-4 Format profile : QuickTime Codec ID : qt 2007.09 (qt /####) File size : 150 MiB Duration : 1 min 29 s Overall bit rate mode : Variable Overall bit rate : 14.0 Mb/s thmb : AX Video ID : 1 Format : AVC Format/Info : Advanced Video Codec Format profile : Main@L4 Format settings : CABAC / 2 Ref Frames Format settings, CABAC : Yes Format settings, Reference frames : 2 frames Codec ID : avc1 Codec ID/Info : Advanced Video Coding Duration : 1 min 29 s Source duration : 1 min 29 s Bit rate mode : Variable Bit rate : 12.5 Mb/s Maximum bit rate : 20.0 Mb/s Width : 1 920 pixels Height : 1 080 pixels Display aspect ratio : 16:9 Frame rate mode : Constant Frame rate : 29.970 (30000/1001) FPS Color space : YUV Chroma subsampling : 4:2:0 Bit depth : 8 bits Scan type : Progressive Bits/(Pixel*Frame) : 0.201 Stream size : 133 MiB (89%) Source stream size : 133 MiB (89%) Language : English mdhd_Duration : 89707 Codec configuration box : avcC Audio ID : 2 Format : PCM Format settings : Little / Signed Codec ID : sowt Duration : 1 min 29 s Bit rate mode : Constant Bit rate : 1 536 kb/s Channel(s) : 2 channels Channel layout : L R Sampling rate : 48.0 kHz Bit depth : 16 bits Stream size : 16.4 MiB (11%) Language : English

Christmas light 💡 balls : Pentax Q Vivitar-55MM 1:2.8 MC MACRO Ø62 FD to Pq Night Video Part1





Part1 Night Video Christmas light 💡 balls Larissa Greece Camera : Pentax Q 12.4 Mp 1/2.3-inch CMOS Crop factor 5.62 Lens : Vivitar-55MM 1:2.8 MC MACRO Ø62 FD @ f/2.8 310mm equivalent 35mm Mode : M Shutter 1/100 ISO 400 EV 0,0 Video Stabilization OFF Video 1920x1080 @ 30fps Complete name : I:\DCIM\120_0612\IMGP8556.MOV Format : MPEG-4 Format profile : QuickTime Codec ID : qt 2007.09 (qt /####) File size : 178 MiB Duration : 1 min 46 s Overall bit rate mode : Variable Overall bit rate : 14.0 Mb/s thmb : AX Video ID : 1 Format : AVC Format/Info : Advanced Video Codec Format profile : Main@L4 Format settings : CABAC / 2 Ref Frames Format settings, CABAC : Yes Format settings, Reference frames : 2 frames Codec ID : avc1 Codec ID/Info : Advanced Video Coding Duration : 1 min 46 s Source duration : 1 min 46 s Bit rate mode : Variable Bit rate : 12.5 Mb/s Maximum bit rate : 20.0 Mb/s Width : 1 920 pixels Height : 1 080 pixels Display aspect ratio : 16:9 Frame rate mode : Constant Frame rate : 29.970 (30000/1001) FPS Color space : YUV Chroma subsampling : 4:2:0 Bit depth : 8 bits Scan type : Progressive Bits/(Pixel*Frame) : 0.201 Stream size : 158 MiB (89%) Source stream size : 158 MiB (89%) Language : English mdhd_Duration : 106388 Codec configuration box : avcC Audio ID : 2 Format : PCM Format settings : Little / Signed Codec ID : sowt Duration : 1 min 46 s Bit rate mode : Constant Bit rate : 1 536 kb/s Channel(s) : 2 channels Channel layout : L R Sampling rate : 48.0 kHz Bit depth : 16 bits Stream size : 19.5 MiB (11%) Language : English

Small Christmas 🎄tree : Pentax Q with Vivitar-55MM 1:2.8 MC MACRO Ø62 FD adapted to Pq




Small Christmas 🎄tree Larissa Greece Camera : Pentax Q 12.4 Mp 1/2.3-inch CMOS Crop factor 5.62 Lens : Vivitar-55MM 1:2.8 MC MACRO Ø62 FD @ f/2.8 310mm equivalent 35mm Mode : M Shutter 1/100 ISO 400 EV 0,0 Video Stabilization OFF Video 1920x1080 @ 30fps Complete name : I:\DCIM\120_0612\IMGP8531.MOV Format : MPEG-4 Format profile : QuickTime Codec ID : qt 2007.09 (qt /####) File size : 162 MiB Duration : 1 min 36 s Overall bit rate mode : Variable Overall bit rate : 14.1 Mb/s thmb : AX Video ID : 1 Format : AVC Format/Info : Advanced Video Codec Format profile : Main@L4 Format settings : CABAC / 2 Ref Frames Format settings, CABAC : Yes Format settings, Reference frames : 2 frames Codec ID : avc1 Codec ID/Info : Advanced Video Coding Duration : 1 min 36 s Source duration : 1 min 36 s Bit rate mode : Variable Bit rate : 12.5 Mb/s Maximum bit rate : 20.0 Mb/s Width : 1 920 pixels Height : 1 080 pixels Display aspect ratio : 16:9 Frame rate mode : Constant Frame rate : 29.970 (30000/1001) FPS Color space : YUV Chroma subsampling : 4:2:0 Bit depth : 8 bits Scan type : Progressive Bits/(Pixel*Frame) : 0.201 Stream size : 144 MiB (89%) Source stream size : 144 MiB (89%) Language : English mdhd_Duration : 96618 Codec configuration box : avcC Audio ID : 2 Format : PCM Format settings : Little / Signed Codec ID : sowt Duration : 1 min 36 s Bit rate mode : Constant Bit rate : 1 536 kb/s Channel(s) : 2 channels Channel layout : L R Sampling rate : 48.0 kHz Bit depth : 16 bits Stream size : 17.7 MiB (11%) Language : English

Λάρισα 6/12/2019 : Λιτανεία του Αγίου Νικολάου - Ηπείρου & Παπαναστασίου





6/12/2019 
Λιτανεία του Αγίου Νικολάου
Ηπείρου & Παπαναστασίου Λάρισα 

Complete name :DCIM\112_ZOOM\ZOOM0002.MOV 
Format : MPEG-4 
Format profile : QuickTime 
Codec ID : qt 0000.00 (qt ) 
File size : 620 MiB 
Duration : 2 min 57 s 
Overall bit rate mode : Constant 
Overall bit rate : 29.2 Mb/s 





Video 
ID : 1 
Format : AVC 
Format/Info : Advanced Video Codec 
Format profile : Main@L5 
Format settings : CABAC / 1 Ref Frames 
Format settings, CABAC : Yes 
Format settings, Reference frames : 1 frame 
Format settings, GOP : M=1, N=8 
Codec ID : avc1 
Codec ID/Info : Advanced Video Coding 
Duration : 2 min 57 s 
Bit rate mode : Constant 
Bit rate : 23.4 Mb/s 
Width : 2 304 pixels 
Clean aperture width : 2 304 pixels 
Height : 1 296 pixels 
Clean aperture height : 1 296 pixels 
Display aspect ratio : 16:9 
Frame rate mode : Constant 
Frame rate : 25.000 FPS 
Color space : YUV 
Chroma subsampling : 4:2:0 
Bit depth : 8 bits 
Scan type : Progressive 
Bits/(Pixel*Frame) : 0.313 
Stream size : 509 MiB (82%) 
Title : Ambarella AVC / Ambarella AVC 
Language : English 



Color range : Full 
Codec configuration box : avcC 



Audio 
ID : 2 
Format : PCM 
Format settings : Little / Signed 
Codec ID : lpcm 
Duration : 2 min 57 s 
Bit rate mode : Constant 
Bit rate : 4 608 kb/s 
Channel(s) : 2 channels 
Channel layout : L R 
Sampling rate : 96.0 kHz 
Bit depth : 24 bits 
Stream size : 97.7 MiB (16%) 
Title : Ambarella AAC / Ambarella AAC 
Language : English

Cat in the park Larissa Greece 1080 50fps Canon EOS 250d + Canon Lens EF-S 18-55mm f/3.5-5.6 III




Cat in the park Larissa Greece Camera : Canon EOS 250d Lens : Canon Zoom Lens EF-S 18-55mm f/3.5-5.6 III Mode A Focus MF Canon EOS 250d video test FHD 1080 50fps Complete name : CANON\Canon EOS 250D\MVI_7611.MP4 Format : MPEG-4 Format profile : Base Media / Version 2 Codec ID : mp42 (mp42/avc1/CAEP) File size : 454 MiB Duration : 1 min 3 s Overall bit rate : 60.0 Mb/s Encoded date : UTC 2019-12-03 14:10:46 Tagged date : UTC 2019-12-03 14:10:46 Video ID : 1 Format : AVC Format/Info : Advanced Video Codec Format profile : High@L5.1 Format settings : CABAC / 2 Ref Frames Format settings, CABAC : Yes Format settings, Reference frames : 2 frames Format settings, GOP : M=3, N=24 Codec ID : avc1 Codec ID/Info : Advanced Video Coding Duration : 1 min 3 s Bit rate : 59.7 Mb/s Width : 1 920 pixels Height : 1 080 pixels Display aspect ratio : 16:9 Frame rate mode : Constant Frame rate : 50.000 FPS Color space : YUV Chroma subsampling : 4:2:0 Bit depth : 8 bits Scan type : Progressive Bits/(Pixel*Frame) : 0.576 Stream size : 451 MiB (99%) Language : English Encoded date : UTC 2019-12-03 14:10:46 Tagged date : UTC 2019-12-03 14:10:46 Color range : Full Color primaries : BT.709 Transfer characteristics : BT.709 Matrix coefficients : BT.709 Codec configuration box : avcC Audio ID : 2 Format : AAC LC Format/Info : Advanced Audio Codec Low Complexity Codec ID : mp4a-40-2 Duration : 1 min 3 s Bit rate mode : Constant Bit rate : 256 kb/s Channel(s) : 2 channels Channel layout : L R Sampling rate : 48.0 kHz Frame rate : 46.875 FPS (1024 SPF) Compression mode : Lossy Stream size : 1.91 MiB (0%) Language : English Encoded date : UTC 2019-12-03 14:10:46


Genova città deserta Seconda parte rimaniamo a casa Μένουμε Σπίτι και εμείς

rimaniamo a casa Seconda parte Genova città deserta #StayHome Γένοβα δεύτερο μέρος Μένουμε Σπίτι και εμείς 2nd Part desert Genoa Geno...