Cat in the park Larissa Greece 4K 25fps Canon EOS 250d + Canon Lens EF-S 18-55mm f/3.5-5.6 III





Cat in the park Larissa Greece Camera : Canon EOS 250d Lens : Canon Zoom Lens EF-S 18-55mm f/3.5-5.6 III Mode A Focus MF Canon EOS 250d video test UHD 4K 25fps

V30 A1 UHS-I U3 CLASS10 2:15:47 there was a video test
V30 A1 UHS-I U3 CLASS10
V30 A1 UHS-I U3 CLASS10
V30 A1 UHS-I U3 CLASS10

Complete name : DCIM\101YICAM\MVI_7609.MP4 Format : MPEG-4 Format profile : Base Media / Version 2 Codec ID : mp42 (mp42/avc1/CAEP) File size : 858 MiB Duration : 1 min 0 s Overall bit rate : 119 Mb/s Encoded date : UTC 2019-12-03 14:08:14 Tagged date : UTC 2019-12-03 14:08:14 Video ID : 1 Format : AVC Format/Info : Advanced Video Codec Format profile : High@L5.1 Format settings : 2 Ref Frames Format settings, CABAC : No Format settings, RefFrames : 2 frames Format settings, GOP : M=3, N=12 Codec ID : avc1 Codec ID/Info : Advanced Video Coding Duration : 1 min 0 s Bit rate : 119 Mb/s Width : 3 840 pixels Height : 2 160 pixels Display aspect ratio : 16:9 Frame rate mode : Constant Frame rate : 25.000 FPS Color space : YUV Chroma subsampling : 4:2:0 Bit depth : 8 bits Scan type : Progressive Bits/(Pixel*Frame) : 0.573 Stream size : 856 MiB (100%) Language : English Encoded date : UTC 2019-12-03 14:08:14 Tagged date : UTC 2019-12-03 14:08:14 Color range : Full Color primaries : BT.709 Transfer characteristics : BT.709 Matrix coefficients : BT.709 Codec configuration box : avcC Audio ID : 2 Format : AAC LC Format/Info : Advanced Audio Codec Low Complexity Codec ID : mp4a-40-2 Duration : 1 min 0 s Bit rate mode : Constant Bit rate : 256 kb/s Channel(s) : 2 channels Channel layout : L R Sampling rate : 48.0 kHz Frame rate : 46.875 FPS (1024 SPF) Compression mode : Lossy Stream size : 1.83 MiB (0%) Language : English Encoded date : UTC 2019-12-03 14:08:14

Genova città deserta Seconda parte rimaniamo a casa Μένουμε Σπίτι και εμείς

rimaniamo a casa Seconda parte Genova città deserta #StayHome Γένοβα δεύτερο μέρος Μένουμε Σπίτι και εμείς 2nd Part desert Genoa Geno...