Sanyo Xacti VPC-CG100 Video test #002 1080p 30fps



2. Ανθισμένη μανόλια ροζ κεντρική πλατεία Λάρισα 16/03/2019

Sanyo Xacti VPC-CG100 Video test #001 1080p 30fps
Video Stabilazer ON
Exposure M Manual
Complete name : SANYO\SANY0073.MP4
Format : MPEG-4
Format profile : Base Media / Version 2
Codec ID : mp42 (mp42/avc1)
File size : 52.5 MiB
Duration : 30 s 30 ms
Overall bit rate mode : Variable
Overall bit rate : 14.7 Mb/s
Movie_More : SANYO DIGITAL CAMERA CG100
Encoded date : UTC 2019-03-16 16:25:49
Tagged date : UTC 2019-03-16 16:25:49
Origin : Digital Camera
TAGS : O DIGITAL CAMERA

Video
ID : 1
Format : AVC
Format/Info : Advanced Video Codec
Format profile : Baseline@L4
Format settings : 2 Ref Frames
Format settings, CABAC : No
Format settings, RefFrames : 2 frames
Codec ID : avc1
Codec ID/Info : Advanced Video Coding
Duration : 30 s 30 ms
Bit rate : 14.2 Mb/s
Width : 1 920 pixels
Height : 1 080 pixels
Display aspect ratio : 16:9
Frame rate mode : Constant
Frame rate : 29.970 (30000/1001) FPS
Color space : YUV
Chroma subsampling : 4:2:0
Bit depth : 8 bits
Scan type : Progressive
Bits/(Pixel*Frame) : 0.228
Stream size : 50.7 MiB (97%)
Language : English
Encoded date : UTC 2019-03-16 16:25:49
Color range : Full
Color primaries : BT.709
Transfer characteristics : BT.709
Matrix coefficients : BT.709
Codec configuration box : avcC

Audio
ID : 2
Format : AAC LC
Format/Info : Advanced Audio Codec Low Complexity
Codec ID : mp4a-40-2
Duration : 30 s 30 ms
Source duration : 30 s 208 ms
Bit rate mode : Variable
Bit rate : 256 kb/s
Maximum bit rate : 192 kb/s
Channel(s) : 2 channels
Channel layout : L R
Sampling rate : 48.0 kHz
Frame rate : 46.875 FPS (1024 SPF)
Compression mode : Lossy
Stream size : 935 KiB (2%)
Source stream size : 940 KiB (2%)
Language : English
Encoded date : UTC 2019-03-16 16:25:49

Sanyo Xacti VPC-CG100 Video test #001 1080p 30fps



1. Ανθισμένη μανόλια ροζ κεντρική πλατεία Λάρισα 16/03/2019

Sanyo Xacti VPC-CG100 Video test #001 1080p 30fps
Video Stabilazer ON
Exposure M Manual


Complete name : SANYO\SANY0053.MP4
Format : MPEG-4
Format profile : Base Media / Version 2
Codec ID : mp42 (mp42/avc1)
File size : 54.1 MiB
Duration : 31 s 31 ms
Overall bit rate mode : Variable
Overall bit rate : 14.6 Mb/s
Movie_More : SANYO DIGITAL CAMERA CG100
Encoded date : UTC 2019-03-16 16:21:47
Tagged date : UTC 2019-03-16 16:21:47
Origin : Digital Camera
TAGS : O DIGITAL CAMERA

Video
ID : 1
Format : AVC
Format/Info : Advanced Video Codec
Format profile : Baseline@L4
Format settings : 2 Ref Frames
Format settings, CABAC : No
Format settings, RefFrames : 2 frames
Codec ID : avc1
Codec ID/Info : Advanced Video Coding
Duration : 31 s 31 ms
Bit rate : 14.1 Mb/s
Width : 1 920 pixels
Height : 1 080 pixels
Display aspect ratio : 16:9
Frame rate mode : Constant
Frame rate : 29.970 (30000/1001) FPS
Color space : YUV
Chroma subsampling : 4:2:0
Bit depth : 8 bits
Scan type : Progressive
Bits/(Pixel*Frame) : 0.227
Stream size : 52.3 MiB (97%)
Language : English
Encoded date : UTC 2019-03-16 16:21:47
Color range : Full
Color primaries : BT.709
Transfer characteristics : BT.709
Matrix coefficients : BT.709
Codec configuration box : avcC

Audio
ID : 2
Format : AAC LC
Format/Info : Advanced Audio Codec Low Complexity
Codec ID : mp4a-40-2
Duration : 31 s 31 ms
Source duration : 31 s 211 ms
Bit rate mode : Variable
Bit rate : 256 kb/s
Maximum bit rate : 192 kb/s
Channel(s) : 2 channels
Channel layout : L R
Sampling rate : 48.0 kHz
Frame rate : 46.875 FPS (1024 SPF)
Compression mode : Lossy
Stream size : 963 KiB (2%)
Source stream size : 969 KiB (2%)
Language : English
Encoded date : UTC 2019-03-16 16:21:47

Απονομή Πιστοποιητικών Παρακολούθησης Σεμιναρίου 50 ωρών 2018-2019




Απονομή Πιστοποιητικών Παρακολούθησης Σεμιναρίου 50 ωρών "Η προσωπική και επαγγελματική σχέση των άλλων και του κόσμου: Οι θέσεις της ζωής"
 Σεμινάριο 2018-2019 
Κοινωνιολόγος-σύμβουλος Διονυσία Τριπολίτου

Πέμπτη 7 Μαρτίου 2019 και ώρα 18:00-21:00

Επιμελητήριο Λάρισας


Αward

Καλλιόπη Τζήκα : Ομιλία στην εκδήλωση πιστοποίησης (2018 2019)



Καλλιόπη Τζήκα
Γενική Γραμματέας του Επιμελητηρίου Λάρισας
Ομιλία στην εκδήλωση πιστοποίησης σεμιναρίου 50 ωρών (2018 2019)

Η προσωπική και επαγγελματική σχέση των άλλων και του κόσμου: Οι θέσεις της ζωής  Σεμινάριο 2018-2019 

Κοινωνιολόγος-σύμβουλος Διονυσία Τριπολίτου

Πέμπτη 7 Μαρτίου 2019 και ώρα 18:00-21:00

Επιμελητήριο Λάρισας

Σωτήρης Γιαννακόπουλος : Ομιλία στην εκδήλωση πιστοποίησης (2018 2019)



Πρόεδρος του Επιμελητηρίου Λάρισας
Σωτήρης Γιαννακόπουλος

Ομιλία στην εκδήλωση πιστοποίησης σεμιναρίου 50 ωρών (2018 2019)

Η προσωπική και επαγγελματική σχέση των άλλων και του κόσμου: Οι θέσεις της ζωής  Σεμινάριο 2018-2019 

Κοινωνιολόγος-σύμβουλος Διονυσία Τριπολίτου

Πέμπτη 7 Μαρτίου 2019 και ώρα 18:00-21:00

Επιμελητήριο Λάρισας

Διονυσία Τριπολίτου Ομιλία στην εκδήλωση πιστοποίησης (2018 2019)




Διονυσία Τριπολίτου Ομιλία στην εκδήλωση πιστοποίησης (2018 2019)
Η προσωπική και επαγγελματική σχέση των άλλων και του κόσμου: Οι θέσεις της ζωής  Σεμινάριο 2018-2019 

Κοινωνιολόγος-σύμβουλος Διονυσία Τριπολίτου

Πέμπτη 7 Μαρτίου 2019 και ώρα 18:00-21:00

Επιμελητήριο Λάρισας

Χορευτικό δρώμενο από τον Θωμά Μουτoγιάννο


Θωμάς Μουτογιάννος Δάσκαλος χορού
συμμετέχοντες:
Νίκη Ζυρπιάδου-
Σοφία Κουρκουμπά-
Ντιάνα Κυριτσάκα-
Σταμάτη Μάρκο-Βασιλική
Σταύρου-Αθηνά Ζήκου-
Σταύρο Μπουμπουνάρα-
Αλεξάνδρα Μουχτή-
Θεοδώρα Καραγκούνη-
Μαρία Παπά-
Στυλιανή Σουμουνούδη.
Η θεατρολόγος Βανέσσα Βραχνιάρη  διέθεσε στην σκηνογραφία.

Εκδήλωση πιστοποίησης σεμιναρίου 50 ωρών (2018 2019)



Η προσωπική και επαγγελματική σχέση των άλλων και του κόσμου: Οι θέσεις της ζωής

 Σεμινάριο 2018-2019 
Κοινωνιολόγος-σύμβουλος Διονυσία Τριπολίτου

Πέμπτη 7 Μαρτίου 2019 και ώρα 18:00-21:00

Επιμελητήριο Λάρισας

Olympus OM‑D E‑M10 Firmware update 1.4



Olympus  OM‑D E‑M10 Firmware update to 1.4
Firmware update 1.4 upgrade

Download and Install the OLYMPUS Digital Camera Updater

http://support.olympus-imaging.com/ou1download

Connect the camera with usb cable to the computer

Pentax K-x firmware update v1.03




Pentax K-x Update firmware

Upgrade to firmware v1.03


Filmed with Sony HDR-CX410VE 1920 1080 50p 28Mbit

Insert new batteries

format a sd card and copy the firmware version pentax K-x 1.03

insert the sd card to the camera

hold the menu button and turn on the camera

in the menu select YES

firmware update 1/2 2/2
don't do anythhing to the camera and
when complete

turn off the camera

you have installed the last firmware

Larissa Railway Station : Sony SLT-A58 video test #001 1080 50i 24.0 Mb/s



Larissa station  train Larissa Thessaloniki
Sony SLT-A58 video test #001 1080 50i 24.0 Mb/s
20 megapixels SteadyShot
Lens mount : Sony/Minolta Alpha

Complete name : SONY\SLT-A58\DCIM\STREAM\00051.MTS
Format : BDAV
Format/Info : Blu-ray Video
File size : 78.2 MiB
Duration : 29 s 614 ms
Overall bit rate mode : Variable
Overall bit rate : 22.1 Mb/s
Maximum Overall bit rate : 24.0 Mb/s
Recorded date : 2018-11-10 17:46:17+03:00
Writing application : Sony SLT-A58

Video
ID : 4113 (0x1011)
Menu ID : 1 (0x1)
Format : AVC
Format/Info : Advanced Video Codec
Format profile : High@L4
Format settings : CABAC / 2 Ref Frames
Format settings, CABAC : Yes
Format settings, RefFrames : 2 frames
Format settings, picture structure : Frame
Codec ID : 27
Duration : 29 s 640 ms
Bit rate mode : Variable
Bit rate : 21.0 Mb/s
Maximum bit rate : 22.0 Mb/s
Width : 1 920 pixels
Height : 1 080 pixels
Display aspect ratio : 16:9
Frame rate : 25.000 FPS
Color space : YUV
Chroma subsampling : 4:2:0
Bit depth : 8 bits
Scan type : Interlaced
Scan type, store method : Interleaved fields
Scan order : Top Field First
Bits/(Pixel*Frame) : 0.405
Stream size : 74.2 MiB (95%)
IrisFNumber : 0.000000

Audio
ID : 4352 (0x1100)
Menu ID : 1 (0x1)
Format : AC-3
Format/Info : Audio Coding 3
Commercial name : Dolby Digital
Codec ID : 129
Duration : 29 s 664 ms
Bit rate mode : Constant
Bit rate : 256 kb/s
Channel(s) : 2 channels
Channel layout : L R
Sampling rate : 48.0 kHz
Frame rate : 31.250 FPS (1536 SPF)
Bit depth : 16 bits
Compression mode : Lossy
Stream size : 927 KiB (1%)
Service kind : Complete Main

Text
ID : 4608 (0x1200)
Menu ID : 1 (0x1)
Format : PGS
Codec ID : 144
Duration : 29 s 55 ms

b. Full Moon : Sony HDR-CX410VE zoom 55x video test #003 FHD 1080 50p 28Mbit


No2 2019-02-19 : Full Moon zoom 55x Sony HDR-CX410VE video test #003 1920 1080 50p 28Mbit

Complete name : AVCHD\BDMV\STREAM\00003.MTS
Format : BDAV
Format/Info : Blu-ray Video
File size : 80.3 MiB
Duration : 25 s 374 ms
Overall bit rate mode : Variable
Overall bit rate : 26.5 Mb/s
Maximum Overall bit rate : 28.0 Mb/s
Recorded date : 2019-02-19 22:37:12+02:00
Writing application : Sony HDR-CX410VE

Video
ID : 4113 (0x1011)
Menu ID : 1 (0x1)
Format : AVC
Format/Info : Advanced Video Codec
Format profile : High@L4.2
Format settings : CABAC / 2 Ref Frames
Format settings, CABAC : Yes
Format settings, RefFrames : 2 frames
Format settings, GOP : M=1, N=12
Codec ID : 27
Duration : 25 s 440 ms
Bit rate mode : Variable
Bit rate : 25.0 Mb/s
Maximum bit rate : 26.0 Mb/s
Width : 1 920 pixels
Height : 1 080 pixels
Display aspect ratio : 16:9
Frame rate : 50.000 FPS
Color space : YUV
Chroma subsampling : 4:2:0
Bit depth : 8 bits
Scan type : Progressive
Bits/(Pixel*Frame) : 0.241
Stream size : 75.8 MiB (94%)
IrisFNumber : 4.800000

Audio
ID : 4352 (0x1100)
Menu ID : 1 (0x1)
Format : AC-3
Format/Info : Audio Coding 3
Commercial name : Dolby Digital
Codec ID : 129
Duration : 25 s 440 ms
Bit rate mode : Constant
Bit rate : 448 kb/s
Channel(s) : 6 channels
Channel layout : L R C LFE Ls Rs
Sampling rate : 48.0 kHz
Frame rate : 31.250 FPS (1536 SPF)
Bit depth : 16 bits
Compression mode : Lossy
Stream size : 1.36 MiB (2%)
Service kind : Complete Main

Text
ID : 4608 (0x1200)
Menu ID : 1 (0x1)
Format : PGS
Codec ID : 144
Duration : 24 s 895 ms

Nikolaos Sakellaris

a. Full Moon Sony HDR-CX410VE zoom 55x video test #002 FHD1080 50p 28Mbit



No1 2019-02-19  : Full Moon zoom 55x Sony HDR-CX410VE video test #002 1920 1080 50p 28Mbit

Complete name : AVCHD\BDMV\STREAM\00002.MTS
Format : BDAV
Format/Info : Blu-ray Video
File size : 72.5 MiB
Duration : 23 s 34 ms
Overall bit rate mode : Variable
Overall bit rate : 26.4 Mb/s
Maximum Overall bit rate : 28.0 Mb/s
Recorded date : 2019-02-19 22:36:30+02:00
Writing application : Sony HDR-CX410VE

Video
ID : 4113 (0x1011)
Menu ID : 1 (0x1)
Format : AVC
Format/Info : Advanced Video Codec
Format profile : High@L4.2
Format settings : CABAC / 2 Ref Frames
Format settings, CABAC : Yes
Format settings, RefFrames : 2 frames
Format settings, GOP : M=1, N=12
Codec ID : 27
Duration : 23 s 40 ms
Bit rate mode : Variable
Bit rate : 24.9 Mb/s
Maximum bit rate : 26.0 Mb/s
Width : 1 920 pixels
Height : 1 080 pixels
Display aspect ratio : 16:9
Frame rate : 50.000 FPS
Color space : YUV
Chroma subsampling : 4:2:0
Bit depth : 8 bits
Scan type : Progressive
Bits/(Pixel*Frame) : 0.240
Stream size : 68.4 MiB (94%)
IrisFNumber : 4.800000

Audio
ID : 4352 (0x1100)
Menu ID : 1 (0x1)
Format : AC-3
Format/Info : Audio Coding 3
Commercial name : Dolby Digital
Codec ID : 129
Duration : 23 s 40 ms
Bit rate mode : Constant
Bit rate : 448 kb/s
Channel(s) : 6 channels
Channel layout : L R C LFE Ls Rs
Sampling rate : 48.0 kHz
Frame rate : 31.250 FPS (1536 SPF)
Bit depth : 16 bits
Compression mode : Lossy
Stream size : 1.23 MiB (2%)
Service kind : Complete Main

Text
ID : 4608 (0x1200)
Menu ID : 1 (0x1)
Format : PGS
Codec ID : 144
Duration : 22 s 495 ms

Nikolaos Sakellaris

b. Monastery of St. John the Theologian : Sony a3000 ilce 3000 video test #010 24Mb/s FHD 1080 50i



No2 Holy Monastery of St. John the Theologian (Agios Ioannis Theologos), Souroti, Thessaloniki, Greece
The tomb of St. Paisios is located in the Holy Hierarchy of St. John the Theologian
Sony a3000 ilce 3000 video test #010 24Mb/s FHD 1080 50i

Complete name : SONY\ILCE-3000\STREAM\00002 (4).MTS
Format : BDAV
Format/Info : Blu-ray Video
File size : 58.7 MiB
Duration : 22 s 321 ms
Overall bit rate mode : Variable
Overall bit rate : 22.1 Mb/s
Maximum Overall bit rate : 24.0 Mb/s
Recorded date : 2017-08-13 14:12:36+03:00
Writing application : Sony ILCE-3000

Video
ID : 4113 (0x1011)
Menu ID : 1 (0x1)
Format : AVC
Format/Info : Advanced Video Codec
Format profile : High@L4
Format settings : CABAC / 2 Ref Frames
Format settings, CABAC : Yes
Format settings, RefFrames : 2 frames
Format settings, picture structure : Frame
Codec ID : 27
Duration : 22 s 360 ms
Bit rate mode : Variable
Bit rate : 20.9 Mb/s
Maximum bit rate : 22.0 Mb/s
Width : 1 920 pixels
Height : 1 080 pixels
Display aspect ratio : 16:9
Frame rate : 25.000 FPS
Color space : YUV
Chroma subsampling : 4:2:0
Bit depth : 8 bits
Scan type : Interlaced
Scan type, store method : Interleaved fields
Scan order : Top Field First
Bits/(Pixel*Frame) : 0.403
Stream size : 55.7 MiB (95%)
IrisFNumber : 11.000000

Audio
ID : 4352 (0x1100)
Menu ID : 1 (0x1)
Format : AC-3
Format/Info : Audio Coding 3
Commercial name : Dolby Digital
Codec ID : 129
Duration : 22 s 368 ms
Bit rate mode : Constant
Bit rate : 256 kb/s
Channel(s) : 2 channels
Channel layout : L R
Sampling rate : 48.0 kHz
Frame rate : 31.250 FPS (1536 SPF)
Bit depth : 16 bits
Compression mode : Lossy
Stream size : 699 KiB (1%)
Service kind : Complete Main

Text
ID : 4608 (0x1200)
Menu ID : 1 (0x1)
Format : PGS
Codec ID : 144
Duration : 21 s 775 ms

Nikolaos Sakellaris

a. Monastery of St. John the Theologian : Sony a3000 ilce 3000 video test #009 24Mb/s FHD 1080 50i



No1 Holy Monastery of St. John the Theologian (Agios Ioannis Theologos), Souroti, Thessaloniki, Greece
The tomb of St. Paisios is located in the Holy Hierarchy of St. John the Theologian
Sony a3000 ilce 3000 video test #009 24Mb/s FHD 1080 50i

Complete name : SONY\ILCE-3000\STREAM\00001 (3).MTS
Format : BDAV
Format/Info : Blu-ray Video
File size : 45.8 MiB
Duration : 17 s 643 ms
Overall bit rate mode : Variable
Overall bit rate : 21.8 Mb/s
Maximum Overall bit rate : 24.0 Mb/s
Recorded date : 2017-08-13 14:12:12+03:00
Writing application : Sony ILCE-3000

Video
ID : 4113 (0x1011)
Menu ID : 1 (0x1)
Format : AVC
Format/Info : Advanced Video Codec
Format profile : High@L4
Format settings : CABAC / 2 Ref Frames
Format settings, CABAC : Yes
Format settings, RefFrames : 2 frames
Format settings, picture structure : Frame
Codec ID : 27
Duration : 17 s 680 ms
Bit rate mode : Variable
Bit rate : 20.6 Mb/s
Maximum bit rate : 22.0 Mb/s
Width : 1 920 pixels
Height : 1 080 pixels
Display aspect ratio : 16:9
Frame rate : 25.000 FPS
Color space : YUV
Chroma subsampling : 4:2:0
Bit depth : 8 bits
Scan type : Interlaced
Scan type, store method : Interleaved fields
Scan order : Top Field First
Bits/(Pixel*Frame) : 0.398
Stream size : 43.5 MiB (95%)
IrisFNumber : 16.000000

Audio
ID : 4352 (0x1100)
Menu ID : 1 (0x1)
Format : AC-3
Format/Info : Audio Coding 3
Commercial name : Dolby Digital
Codec ID : 129
Duration : 17 s 696 ms
Bit rate mode : Constant
Bit rate : 256 kb/s
Channel(s) : 2 channels
Channel layout : L R
Sampling rate : 48.0 kHz
Frame rate : 31.250 FPS (1536 SPF)
Bit depth : 16 bits
Compression mode : Lossy
Stream size : 553 KiB (1%)
Service kind : Complete Main

Text
ID : 4608 (0x1200)
Menu ID : 1 (0x1)
Format : PGS
Codec ID : 144
Duration : 17 s 95 ms

Nikolaos Sakellaris

c. View from the roof of White Tower Sony a3000 ilce 3000 video test #006 24Mb/s FHD 1080 50i




No3 View from the roof of White Tower of Thessaloniki, Greece
Sony a3000 ilce 3000 video test #006 24Mb/s FHD 1080 50i

Complete name : SONY\ILCE-3000\STREAM\00011 (2).MTS
Format : BDAV
Format/Info : Blu-ray Video
File size : 22.6 MiB
Duration : 8 s 820 ms
Overall bit rate mode : Variable
Overall bit rate : 21.4 Mb/s
Maximum Overall bit rate : 24.0 Mb/s
Recorded date : 2017-08-13 17:54:27+03:00
Writing application : Sony ILCE-3000

Video
ID : 4113 (0x1011)
Menu ID : 1 (0x1)
Format : AVC
Format/Info : Advanced Video Codec
Format profile : High@L4
Format settings : CABAC / 2 Ref Frames
Format settings, CABAC : Yes
Format settings, RefFrames : 2 frames
Format settings, picture structure : Frame
Codec ID : 27
Duration : 8 s 840 ms
Bit rate mode : Variable
Bit rate : 20.3 Mb/s
Maximum bit rate : 22.0 Mb/s
Width : 1 920 pixels
Height : 1 080 pixels
Display aspect ratio : 16:9
Frame rate : 25.000 FPS
Color space : YUV
Chroma subsampling : 4:2:0
Bit depth : 8 bits
Scan type : Interlaced
Scan type, store method : Interleaved fields
Scan order : Top Field First
Bits/(Pixel*Frame) : 0.392
Stream size : 21.4 MiB (95%)
IrisFNumber : 16.000000

Audio
ID : 4352 (0x1100)
Menu ID : 1 (0x1)
Format : AC-3
Format/Info : Audio Coding 3
Commercial name : Dolby Digital
Codec ID : 129
Duration : 8 s 864 ms
Bit rate mode : Constant
Bit rate : 256 kb/s
Channel(s) : 2 channels
Channel layout : L R
Sampling rate : 48.0 kHz
Frame rate : 31.250 FPS (1536 SPF)
Bit depth : 16 bits
Compression mode : Lossy
Stream size : 277 KiB (1%)
Service kind : Complete Main

Text
ID : 4608 (0x1200)
Menu ID : 1 (0x1)
Format : PGS
Codec ID : 144
Duration : 8 s 255 ms

b. View from the roof of White Tower Sony a3000 ilce 3000 video test #005 24Mb/s FHD 1080 50i



No2 View from the roof of White Tower of Thessaloniki, Greece
Sony a3000 ilce 3000 video test #005 24Mb/s FHD 1080 50i

Complete name : SONY\ILCE-3000\STREAM\00010 (2).MTS
Format : BDAV
Format/Info : Blu-ray Video
File size : 33.5 MiB
Duration : 12 s 960 ms
Overall bit rate mode : Variable
Overall bit rate : 21.6 Mb/s
Maximum Overall bit rate : 24.0 Mb/s
Recorded date : 2017-08-13 17:51:31+03:00
Writing application : Sony ILCE-3000

Video
ID : 4113 (0x1011)
Menu ID : 1 (0x1)
Format : AVC
Format/Info : Advanced Video Codec
Format profile : High@L4
Format settings : CABAC / 2 Ref Frames
Format settings, CABAC : Yes
Format settings, RefFrames : 2 frames
Format settings, picture structure : Frame
Codec ID : 27
Duration : 13 s 0 ms
Bit rate mode : Variable
Bit rate : 20.5 Mb/s
Maximum bit rate : 22.0 Mb/s
Width : 1 920 pixels
Height : 1 080 pixels
Display aspect ratio : 16:9
Frame rate : 25.000 FPS
Color space : YUV
Chroma subsampling : 4:2:0
Bit depth : 8 bits
Scan type : Interlaced
Scan type, store method : Interleaved fields
Scan order : Top Field First
Bits/(Pixel*Frame) : 0.396
Stream size : 31.8 MiB (95%)
IrisFNumber : 13.000000

Audio
ID : 4352 (0x1100)
Menu ID : 1 (0x1)
Format : AC-3
Format/Info : Audio Coding 3
Commercial name : Dolby Digital
Codec ID : 129
Duration : 13 s 24 ms
Bit rate mode : Constant
Bit rate : 256 kb/s
Channel(s) : 2 channels
Channel layout : L R
Sampling rate : 48.0 kHz
Frame rate : 31.250 FPS (1536 SPF)
Bit depth : 16 bits
Compression mode : Lossy
Stream size : 407 KiB (1%)
Service kind : Complete Main

Text
ID : 4608 (0x1200)
Menu ID : 1 (0x1)
Format : PGS
Codec ID : 144
Duration : 12 s 415 ms

a. View from the roof of White Tower Sony a3000 ilce 3000 video test #004 24Mb/s FHD 1080 50i




No1 View from the roof of White Tower of Thessaloniki, Greece
Sony a3000 ilce 3000 video test #004 24Mb/s FHD 1080 50i

Complete name : SONY\ILCE-3000\STREAM\00009 (2).MTS
Format : BDAV
Format/Info : Blu-ray Video
File size : 24.1 MiB
Duration : 9 s 361 ms
Overall bit rate mode : Variable
Overall bit rate : 21.6 Mb/s
Maximum Overall bit rate : 24.0 Mb/s
Recorded date : 2017-08-13 17:49:45+03:00
Writing application : Sony ILCE-3000

Video
ID : 4113 (0x1011)
Menu ID : 1 (0x1)
Format : AVC
Format/Info : Advanced Video Codec
Format profile : High@L4
Format settings : CABAC / 2 Ref Frames
Format settings, CABAC : Yes
Format settings, RefFrames : 2 frames
Format settings, picture structure : Frame
Codec ID : 27
Duration : 9 s 360 ms
Bit rate mode : Variable
Bit rate : 20.5 Mb/s
Maximum bit rate : 22.0 Mb/s
Width : 1 920 pixels
Height : 1 080 pixels
Display aspect ratio : 16:9
Frame rate : 25.000 FPS
Color space : YUV
Chroma subsampling : 4:2:0
Bit depth : 8 bits
Scan type : Interlaced
Scan type, store method : Interleaved fields
Scan order : Top Field First
Bits/(Pixel*Frame) : 0.395
Stream size : 22.8 MiB (95%)
IrisFNumber : 16.000000

Audio
ID : 4352 (0x1100)
Menu ID : 1 (0x1)
Format : AC-3
Format/Info : Audio Coding 3
Commercial name : Dolby Digital
Codec ID : 129
Duration : 9 s 376 ms
Bit rate mode : Constant
Bit rate : 256 kb/s
Channel(s) : 2 channels
Channel layout : L R
Sampling rate : 48.0 kHz
Frame rate : 31.250 FPS (1536 SPF)
Bit depth : 16 bits
Compression mode : Lossy
Stream size : 293 KiB (1%)
Service kind : Complete Main

Text
ID : 4608 (0x1200)
Menu ID : 1 (0x1)
Format : PGS
Codec ID : 144
Duration : 8 s 775 ms

c. Inside The White Tower of Thessaloniki Sony a3000 ilce 3000 video test #008 24Mb/s FHD 1080 50i



No3 Inside The White Tower of Thessaloniki, Greece
Sony a3000 ilce 3000 video test #008 24Mb/s FHD 1080 50i

Complete name : SONY\ILCE-3000\STREAM\00015 (2).MTS
Format : BDAV
Format/Info : Blu-ray Video
File size : 33.8 MiB
Duration : 12 s 961 ms
Overall bit rate mode : Variable
Overall bit rate : 21.8 Mb/s
Maximum Overall bit rate : 24.0 Mb/s
Recorded date : 2017-08-13 18:10:50+03:00
Writing application : Sony ILCE-3000

Video
ID : 4113 (0x1011)
Menu ID : 1 (0x1)
Format : AVC
Format/Info : Advanced Video Codec
Format profile : High@L4
Format settings : CABAC / 2 Ref Frames
Format settings, CABAC : Yes
Format settings, RefFrames : 2 frames
Format settings, picture structure : Frame
Codec ID : 27
Duration : 13 s 0 ms
Bit rate mode : Variable
Bit rate : 20.7 Mb/s
Maximum bit rate : 22.0 Mb/s
Width : 1 920 pixels
Height : 1 080 pixels
Display aspect ratio : 16:9
Frame rate : 25.000 FPS
Color space : YUV
Chroma subsampling : 4:2:0
Bit depth : 8 bits
Scan type : Interlaced
Scan type, store method : Interleaved fields
Scan order : Top Field First
Bits/(Pixel*Frame) : 0.399
Stream size : 32.0 MiB (95%)
IrisFNumber : 3.500000

Audio
ID : 4352 (0x1100)
Menu ID : 1 (0x1)
Format : AC-3
Format/Info : Audio Coding 3
Commercial name : Dolby Digital
Codec ID : 129
Duration : 13 s 24 ms
Bit rate mode : Constant
Bit rate : 256 kb/s
Channel(s) : 2 channels
Channel layout : L R
Sampling rate : 48.0 kHz
Frame rate : 31.250 FPS (1536 SPF)
Bit depth : 16 bits
Compression mode : Lossy
Stream size : 407 KiB (1%)
Service kind : Complete Main

Text
ID : 4608 (0x1200)
Menu ID : 1 (0x1)
Format : PGS
Codec ID : 144
Duration : 12 s 415 ms

b. Inside The White Tower of Thessaloniki Sony a3000 ilce 3000 video test #007 24Mb/s FHD 1080 50i



No2 Inside The White Tower of Thessaloniki, Greece
Sony a3000 ilce 3000 video test #007 24Mb/s FHD 1080 50i

Complete name : SONY\ILCE-3000\STREAM\00014 (2).MTS
Format : BDAV
Format/Info : Blu-ray Video
File size : 37.6 MiB
Duration : 14 s 491 ms
Overall bit rate mode : Variable
Overall bit rate : 21.7 Mb/s
Maximum Overall bit rate : 24.0 Mb/s
Recorded date : 2017-08-13 18:10:30+03:00
Writing application : Sony ILCE-3000

Video
ID : 4113 (0x1011)
Menu ID : 1 (0x1)
Format : AVC
Format/Info : Advanced Video Codec
Format profile : High@L4
Format settings : CABAC / 2 Ref Frames
Format settings, CABAC : Yes
Format settings, RefFrames : 2 frames
Format settings, picture structure : Frame
Codec ID : 27
Duration : 14 s 560 ms
Bit rate mode : Variable
Bit rate : 20.6 Mb/s
Maximum bit rate : 22.0 Mb/s
Width : 1 920 pixels
Height : 1 080 pixels
Display aspect ratio : 16:9
Frame rate : 25.000 FPS
Color space : YUV
Chroma subsampling : 4:2:0
Bit depth : 8 bits
Scan type : Interlaced
Scan type, store method : Interleaved fields
Scan order : Top Field First
Bits/(Pixel*Frame) : 0.397
Stream size : 35.8 MiB (95%)
IrisFNumber : 3.500000

Audio
ID : 4352 (0x1100)
Menu ID : 1 (0x1)
Format : AC-3
Format/Info : Audio Coding 3
Commercial name : Dolby Digital
Codec ID : 129
Duration : 14 s 560 ms
Bit rate mode : Constant
Bit rate : 256 kb/s
Channel(s) : 2 channels
Channel layout : L R
Sampling rate : 48.0 kHz
Frame rate : 31.250 FPS (1536 SPF)
Bit depth : 16 bits
Compression mode : Lossy
Stream size : 455 KiB (1%)
Service kind : Complete Main

Text
ID : 4608 (0x1200)
Menu ID : 1 (0x1)
Format : PGS
Codec ID : 144
Duration : 13 s 975 ms

a. Inside The White Tower of Thessaloniki Sony a3000 ilce 3000 video test #003 24Mb/s FHD 1080 50i



No1 Inside The White Tower of Thessaloniki, Greece
Sony a3000 ilce 3000 video test #003 24Mb/s FHD 1080 50i

Complete name : SONY\ILCE-3000\STREAM\00006 (2).MTS
Format : BDAV
Format/Info : Blu-ray Video
File size : 28.0 MiB
Duration : 10 s 891 ms
Overall bit rate mode : Variable
Overall bit rate : 21.5 Mb/s
Maximum Overall bit rate : 24.0 Mb/s
Recorded date : 2017-08-13 17:36:29+03:00
Writing application : Sony ILCE-3000

Video
ID : 4113 (0x1011)
Menu ID : 1 (0x1)
Format : AVC
Format/Info : Advanced Video Codec
Format profile : High@L4
Format settings : CABAC / 2 Ref Frames
Format settings, CABAC : Yes
Format settings, RefFrames : 2 frames
Format settings, picture structure : Frame
Codec ID : 27
Duration : 10 s 920 ms
Bit rate mode : Variable
Bit rate : 20.4 Mb/s
Maximum bit rate : 22.0 Mb/s
Width : 1 920 pixels
Height : 1 080 pixels
Display aspect ratio : 16:9
Frame rate : 25.000 FPS
Color space : YUV
Chroma subsampling : 4:2:0
Bit depth : 8 bits
Scan type : Interlaced
Scan type, store method : Interleaved fields
Scan order : Top Field First
Bits/(Pixel*Frame) : 0.394
Stream size : 26.6 MiB (95%)
IrisFNumber : 3.500000

Audio
ID : 4352 (0x1100)
Menu ID : 1 (0x1)
Format : AC-3
Format/Info : Audio Coding 3
Commercial name : Dolby Digital
Codec ID : 129
Duration : 10 s 944 ms
Bit rate mode : Constant
Bit rate : 256 kb/s
Channel(s) : 2 channels
Channel layout : L R
Sampling rate : 48.0 kHz
Frame rate : 31.250 FPS (1536 SPF)
Bit depth : 16 bits
Compression mode : Lossy
Stream size : 342 KiB (1%)
Service kind : Complete Main

Text
ID : 4608 (0x1200)
Menu ID : 1 (0x1)
Format : PGS
Codec ID : 144
Duration : 10 s 335 ms

LES ZAZOUS Thessaloniki, Sony a3000 ilce 3000 video test #002 24Mb/s FHD 1080 50i



LES ZAZOUS Kalamaria Th. Sofouli 118, Thessaloniki, Greece
Sony a3000 ilce 3000 video test #001 24Mb/s FHD 1080 50i


Complete name : SONY\ILCE-3000\STREAM\00005 (2).MTS
Format : BDAV
Format/Info : Blu-ray Video
File size : 54.4 MiB
Duration : 20 s 703 ms
Overall bit rate mode : Variable
Overall bit rate : 22.0 Mb/s
Maximum Overall bit rate : 24.0 Mb/s
Recorded date : 2017-08-13 15:49:22+03:00
Writing application : Sony ILCE-3000

Video
ID : 4113 (0x1011)
Menu ID : 1 (0x1)
Format : AVC
Format/Info : Advanced Video Codec
Format profile : High@L4
Format settings : CABAC / 2 Ref Frames
Format settings, CABAC : Yes
Format settings, RefFrames : 2 frames
Format settings, picture structure : Frame
Codec ID : 27
Duration : 20 s 800 ms
Bit rate mode : Variable
Bit rate : 20.9 Mb/s
Maximum bit rate : 22.0 Mb/s
Width : 1 920 pixels
Height : 1 080 pixels
Display aspect ratio : 16:9
Frame rate : 25.000 FPS
Color space : YUV
Chroma subsampling : 4:2:0
Bit depth : 8 bits
Scan type : Interlaced
Scan type, store method : Interleaved fields
Scan order : Top Field First
Bits/(Pixel*Frame) : 0.402
Stream size : 51.7 MiB (95%)
IrisFNumber : 6.300000

Audio
ID : 4352 (0x1100)
Menu ID : 1 (0x1)
Format : AC-3
Format/Info : Audio Coding 3
Commercial name : Dolby Digital
Codec ID : 129
Duration : 20 s 800 ms
Bit rate mode : Constant
Bit rate : 256 kb/s
Channel(s) : 2 channels
Channel layout : L R
Sampling rate : 48.0 kHz
Frame rate : 31.250 FPS (1536 SPF)
Bit depth : 16 bits
Compression mode : Lossy
Stream size : 650 KiB (1%)
Service kind : Complete Main

Text
ID : 4608 (0x1200)
Menu ID : 1 (0x1)
Format : PGS
Codec ID : 144
Duration : 20 s 215 ms

Sunset Nei Pori, Sony a3000 ilce 3000 video test #001 24Mb/s 1080 50i



Sunset, Nei Pori, Greece with  Sony a3000 ilce 3000 video test #001 24Mb/s 1080 50i

Complete name : SONY\ILCE-3000\STREAM\00000 (4).MTS
Format : BDAV
Format/Info : Blu-ray Video
File size : 33.5 MiB
Duration : 13 s 502 ms
Overall bit rate mode : Variable
Overall bit rate : 20.8 Mb/s
Maximum Overall bit rate : 24.0 Mb/s
Recorded date : 2017-08-12 20:00:59+03:00
Writing application : Sony ILCE-3000

Video
ID : 4113 (0x1011)
Menu ID : 1 (0x1)
Format : AVC
Format/Info : Advanced Video Codec
Format profile : High@L4
Format settings : CABAC / 2 Ref Frames
Format settings, CABAC : Yes
Format settings, RefFrames : 2 frames
Format settings, picture structure : Frame
Codec ID : 27
Duration : 13 s 0 ms
Bit rate mode : Variable
Bit rate : 19.7 Mb/s
Maximum bit rate : 22.0 Mb/s
Width : 1 920 pixels
Height : 1 080 pixels
Display aspect ratio : 16:9
Frame rate : 25.000 FPS
Color space : YUV
Chroma subsampling : 4:2:0
Bit depth : 8 bits
Scan type : Interlaced
Scan type, store method : Interleaved fields
Scan order : Top Field First
Bits/(Pixel*Frame) : 0.379
Stream size : 30.5 MiB (91%)
IrisFNumber : 4.000000

Audio
ID : 4352 (0x1100)
Menu ID : 1 (0x1)
Format : AC-3
Format/Info : Audio Coding 3
Commercial name : Dolby Digital
Codec ID : 129
Duration : 13 s 24 ms
Bit rate mode : Constant
Bit rate : 256 kb/s
Channel(s) : 2 channels
Channel layout : L R
Sampling rate : 48.0 kHz
Frame rate : 31.250 FPS (1536 SPF)
Bit depth : 16 bits
Compression mode : Lossy
Stream size : 407 KiB (1%)
Service kind : Complete Main

Text
ID : 4608 (0x1200)
Menu ID : 1 (0x1)
Format : PGS
Codec ID : 144
Duration : 12 s 415 ms


Turbo-x s2 timelapse 1080p 30p #002 with Framelapse apk 17 Mb/s




Test 2 Turbo-x s2 timelapse 1080 30p with Framelapse apk 17 Mb/s
camera 13mp Turbo-x ς2

Complete name :  Framelapse \VID_20190222_175856.mp4
Format : MPEG-4
Format profile : 3GPP Media Release 4
Codec ID : 3gp4 (isom/3gp4)
File size : 61.0 MiB
Duration : 30 s 66 ms
Overall bit rate : 17.0 Mb/s
Encoded date : UTC 2019-02-22 16:06:30
com.android.version : 6.0

Video
ID : 1
Format : AVC
Format/Info : Advanced Video Codec
Format profile : Baseline@L4.1
Format settings : 1 Ref Frames
Format settings, CABAC : No
Format settings, RefFrames : 1 frame
Format settings, GOP : M=1, N=30
Codec ID : avc1
Codec ID/Info : Advanced Video Coding
Duration : 30 s 66 ms
Bit rate : 17.0 Mb/s
Width : 1 920 pixels
Height : 1 088 pixels
Display aspect ratio : 16:9
Frame rate mode : Variable
Frame rate : 30.000 FPS
Minimum frame rate : 29.910 FPS
Maximum frame rate : 30.010 FPS
Color space : YUV
Chroma subsampling : 4:2:0
Bit depth : 8 bits
Scan type : Progressive
Bits/(Pixel*Frame) : 0.272
Stream size : 61.0 MiB (100%)
Title : VideoHandle
Language : English
Encoded date : UTC 2019-02-22 16:06:30
mdhd_Duration : 30066
Codec configuration box : avcC

Turbo-x s2 timelapse 1080p 30p #001 with Framelapse apk 17 Mb/s



Test 1 Turbo-x s2 timelapse 1080 30p with Framelapse apk 17 Mb/s
camera 13mp
Turbo-x ς2

Complete name :  Framelapse VID_20190222_174824.mp4
Format : MPEG-4
Format profile : 3GPP Media Release 4
Codec ID : 3gp4 (isom/3gp4)
File size : 61.0 MiB
Duration : 30 s 66 ms
Overall bit rate : 17.0 Mb/s
Encoded date : UTC 2019-02-22 15:55:58
com.android.version : 6.0

Video
ID : 1
Format : AVC
Format/Info : Advanced Video Codec
Format profile : Baseline@L4.1
Format settings : 1 Ref Frames
Format settings, CABAC : No
Format settings, RefFrames : 1 frame
Format settings, GOP : M=1, N=30
Codec ID : avc1
Codec ID/Info : Advanced Video Coding
Duration : 30 s 66 ms
Bit rate : 17.0 Mb/s
Width : 1 920 pixels
Height : 1 088 pixels
Display aspect ratio : 16:9
Frame rate mode : Variable
Frame rate : 30.000 FPS
Minimum frame rate : 29.910 FPS
Maximum frame rate : 30.010 FPS
Color space : YUV
Chroma subsampling : 4:2:0
Bit depth : 8 bits
Scan type : Progressive
Bits/(Pixel*Frame) : 0.272
Stream size : 61.0 MiB (100%)
Title : VideoHandle
Language : English
Encoded date : UTC 2019-02-22 15:55:58
mdhd_Duration : 30066
Codec configuration box : avcC


Genova città deserta Seconda parte rimaniamo a casa Μένουμε Σπίτι και εμείς

rimaniamo a casa Seconda parte Genova città deserta #StayHome Γένοβα δεύτερο μέρος Μένουμε Σπίτι και εμείς 2nd Part desert Genoa Geno...