Nikon 1 J1 video test #001 1920 1080 60i low light at night



Alexander the Great  street Larissa Greece at night
Nikon 1 J1 video test #001 1920 1080 60i

Complete name : NIKON1-J1\VIDEO\DSC_1504.MOV
Format : MPEG-4
Format profile : QuickTime
Codec ID : qt 2007.09 (qt /niko)
File size : 59.3 MiB
Duration : 20 s 187 ms
Overall bit rate mode : Variable
Overall bit rate : 24.6 Mb/s
Encoded date : UTC 2019-02-01 23:15:16
NCDT : NCTG

Video
ID : 1
Format : AVC
Format/Info : Advanced Video Codec
Format profile : High@L4.1
Format settings : CABAC / 2 Ref Frames
Format settings, CABAC : Yes
Format settings, RefFrames : 2 frames
Codec ID : avc1
Codec ID/Info : Advanced Video Coding
Duration : 20 s 187 ms
Bit rate : 24.4 Mb/s
Width : 1 920 pixels
Height : 1 080 pixels
Display aspect ratio : 16:9
Frame rate mode : Constant
Frame rate : 59.940 (60000/1001) FPS
Color space : YUV
Chroma subsampling : 4:2:0
Bit depth : 8 bits
Scan type : Interlaced
Scan type, store method : Separated fields
Scan order : Top Field First
Bits/(Pixel*Frame) : 0.196
Stream size : 58.7 MiB (99%)
Language : English
Encoded date : UTC 2019-02-01 23:15:16
Tagged date : UTC 2019-02-01 23:15:16
Color range : Full
Transfer characteristics : BT.470 System M
Matrix coefficients : BT.470 System B/G
Codec configuration box : avcC

Audio
ID : 2
Format : AAC LC
Format/Info : Advanced Audio Codec Low Complexity
Codec ID : mp4a-40-2
Duration : 20 s 187 ms
Source duration : 20 s 181 ms
Bit rate mode : Variable
Bit rate : 128 kb/s
Maximum bit rate : 192 kb/s
Channel(s) : 2 channels
Channel layout : L R
Sampling rate : 48.0 kHz
Frame rate : 46.875 FPS (1024 SPF)
Compression mode : Lossy
Stream size : 313 KiB (1%)
Source stream size : 313 KiB (1%)
Language : English

Sony HDR-CX410VE video test #001 1920 1080 50p 28Mbit



St. Nicholas Church Larissa Greece
Sony HDR-CX410VE video test #001 1920 1080 50p 28Mbit
with ZEIKOS PL 46mm JAPAN OPTICS Polarizing filter
Steadyshot ACTIVE

Complete name : CAMERA\00000.MTS
Format : BDAV
Format/Info : Blu-ray Video
File size : 76.9 MiB
Duration : 24 s 743 ms
Overall bit rate mode : Variable
Overall bit rate : 26.0 Mb/s
Maximum Overall bit rate : 28.0 Mb/s
Recorded date : 2019-02-19 15:51:49+02:00
Writing application : Sony HDR-CX410VE

Video
ID : 4113 (0x1011)
Menu ID : 1 (0x1)
Format : AVC
Format/Info : Advanced Video Codec
Format profile : High@L4.2
Format settings : CABAC / 2 Ref Frames
Format settings, CABAC : Yes
Format settings, RefFrames : 2 frames
Format settings, GOP : M=1, N=12
Codec ID : 27
Duration : 24 s 0 ms
Bit rate mode : Variable
Bit rate : 24.6 Mb/s
Maximum bit rate : 26.0 Mb/s
Width : 1 920 pixels
Height : 1 080 pixels
Display aspect ratio : 16:9
Frame rate : 50.000 FPS
Color space : YUV
Chroma subsampling : 4:2:0
Bit depth : 8 bits
Scan type : Progressive
Bits/(Pixel*Frame) : 0.237
Stream size : 70.2 MiB (91%)
IrisFNumber : 3.400000

Audio
ID : 4352 (0x1100)
Menu ID : 1 (0x1)
Format : AC-3
Format/Info : Audio Coding 3
Commercial name : Dolby Digital
Codec ID : 129
Duration : 24 s 0 ms
Bit rate mode : Constant
Bit rate : 448 kb/s
Channel(s) : 6 channels
Channel layout : L R C LFE Ls Rs
Sampling rate : 48.0 kHz
Frame rate : 31.250 FPS (1536 SPF)
Bit depth : 16 bits
Compression mode : Lossy
Stream size : 1.28 MiB (2%)
Service kind : Complete Main

Vivitar DVR 528 Video Test 02 1280x720 20fps 8.83 Mb/s



Complete name : SUNP0002.AVI
Format : AVI
Format/Info : Audio Video Interleave
File size : 21.7 MiB
Duration : 20 s 619 ms
Overall bit rate : 8 835 kb/s

Video
ID : 0
Format : JPEG
Codec ID : MJPG
Duration : 20 s 619 ms
Source duration : 20 s 418 ms
Bit rate : 12.9 Mb/s
Width : 1 280 pixels
Height : 720 pixels
Display aspect ratio : 16:9
Frame rate : 19.933 FPS
Color space : YUV
Chroma subsampling : 4:2:2
Bit depth : 8 bits
Scan type : Progressive
Compression mode : Lossy
Bits/(Pixel*Frame) : 0.703
Stream size : 31.4 MiB

Audio
ID : 1
Format : PCM
Format settings : Little / Signed
Codec ID : 1
Duration : 20 s 387 ms
Bit rate mode : Constant
Bit rate : 352.8 kb/s
Channel(s) : 1 channel
Sampling rate : 22.05 kHz
Bit depth : 16 bits
Stream size : 878 KiB (4%)
Alignment : Aligned on interleaves
Interleave, duration : 46 ms (0.93 video frame)

Vivitar DVR 528 Video Test 01 1280x720 20fps 10.5 Mb/s




Vivitar DVR 528 Video Test 1280x720 20fps 10.5 Mb/s

Complete name : SUNP0001.AVI
Format : AVI
Format/Info : Audio Video Interleave
File size : 38.4 MiB
Duration : 30 s 789 ms
Overall bit rate : 10.5 Mb/s

Video
ID : 0
Format : JPEG
Codec ID : MJPG
Duration : 30 s 789 ms
Source duration : 30 s 588 ms
Bit rate : 15.2 Mb/s
Width : 1 280 pixels
Height : 720 pixels
Display aspect ratio : 16:9
Frame rate : 19.942 FPS
Color space : YUV
Chroma subsampling : 4:2:2
Bit depth : 8 bits
Scan type : Progressive
Compression mode : Lossy
Bits/(Pixel*Frame) : 0.825
Stream size : 55.3 MiB

Audio
ID : 1
Format : PCM
Format settings : Little / Signed
Codec ID : 1
Duration : 30 s 557 ms
Bit rate mode : Constant
Bit rate : 352.8 kb/s
Channel(s) : 1 channel
Sampling rate : 22.05 kHz
Bit depth : 16 bits
Stream size : 1.29 MiB (3%)
Alignment : Aligned on interleaves
Interleave, duration : 46 ms (0.93 video frame)

Samsung NX Mini firmware update v1.10




Samsung NX Mini firmware update
 Upgrade to v1.10

"""I you are not shure how to do not do it"""
Maybe your camera cannot power-on or have severe damage.

A. Use the full charged battery

B. Suggested memory card format before upgrade start.

C. During the updating process :
   Do not cut off the power / Do not remove the battery

D. It causes the cannot power-on or the severe damage.
   Finish upgrade : all menu will be reset



Firmware upgrade method using i-Launcher

Download & install i-Launcher

Insert sd card & FORMAT with camera.

Connect the camera to your computer.

From Samsung i-Launcher - Select "Firmware Upgrade"

Automatically "Upgrade window" open if new firmware registered.

Click NEXT

You can check precautions

Click NEXT

Firmware download start

Once the transfer is complete, click the CLOSE button
FIRMWARE is TO sd card.

Remove the USB cable from CAMERA.






Turn the camera on.

Select MENU - Setting  --Sevice information.

Select "Frimware Update" -- Select "Body Firmware"

Select OK

Update will start follow below sequence.

Firmware version checking

Press "Yes"
- Upgrade start

Processing
- You can see the updating status

Power-off (Upgrade Finished)
- NX mini Auto power-off

Turn the camera on.

Select MENU - Setting - Device information.

v1.10


Filmed with Sony HDR-CX410VE 1920 1080 50p 28Mbit

Samsung SMT-C7140 Disassembled remove 320GB hdd




Model Name SMT-C7140
Receiver DVB-C
Input Connector Type IEC female in accordance with IEC 60169- 2
Input Impedance 75 Ω
Broadcasting Rx Frequency 47~870 Mhz
Broadcasting Rx Level -15~+15 dBm (average power)
Type of Broadcasting Rx Modulation Quadrature Amplitude Modulation
Channels Bandwidth 7 and 8 Mhz
Output Connector Type IEC male in accordance with IEC 60169- 2
Audio Output Port Stereo (left/right): 1 port
Digital Audio (SPDIF): 1 port
Video/Audio Concurrent Output Port - HDMI output: 1 port
- SCART: 2 port (TV/VCR)
USB USB 2.0 2 port (front/rear)
Rated Voltage, Frequency AC 230 V ±15%, 50 Hz
Rated Power Consumption Max. 30 W
Operating Temperature 0~40°C
Operating Humidity 20~80% (40°C)
Dimensions (mm) 350 (L) × 260 (W) × 35 (H)
Weight 2,495 g

RECORDED with Casio Exilim EX-ZR10 1920 x 1080 30fps 15Mb/s Auto mode iso 100


Genova città deserta Seconda parte rimaniamo a casa Μένουμε Σπίτι και εμείς

rimaniamo a casa Seconda parte Genova città deserta #StayHome Γένοβα δεύτερο μέρος Μένουμε Σπίτι και εμείς 2nd Part desert Genoa Geno...