Turbo-x ACT-200 1280x720 30fps 10.6 Mb/s Action Cam



Format : MPEG-4
File size : 16.3 MiB
Duration : 12 s 132 ms
Overall bit rate mode : Variable
Overall bit rate : 11.3 Mb/s

Turbo-x ACT-200 1280x720 30fps

Video
ID : 1
Format : AVC
Format/Info : Advanced Video Codec
Format profile : Main@L5.1
Format settings : CABAC / 1 Ref Frames
Format settings, CABAC : Yes
Format settings, RefFrames : 1 frame
Format settings, GOP : M=1, N=30
Codec ID : avc1
Codec ID/Info : Advanced Video Coding
Duration : 12 s 132 ms
Source duration : 12 s 99 ms
Bit rate : 10.6 Mb/s
Width : 1 280 pixels
Height : 720 pixels
Display aspect ratio : 16:9
Frame rate : 30.000 FPS
Color space : YUV
Chroma subsampling : 4:2:0
Bit depth : 8 bits
Scan type : Progressive
Bits/(Pixel*Frame) : 0.382
Stream size : 15.3 MiB (94%)
Source stream size : 15.3 MiB (94%)
Language : English
Color range : Limited
Color primaries : BT.601 PAL
Transfer characteristics : BT.601
Matrix coefficients : BT.470 System B/G
mdhd_Duration : 12132
Codec configuration box : avcC

Audio
ID : 2
Format : AAC LC
Format/Info : Advanced Audio Codec Low Complexity
Codec ID : mp4a-40-2
Duration : 12 s 132 ms
Source duration : 11 s 520 ms
Bit rate mode : Variable
Channel(s) : 1 channel
Channel layout : C
Sampling rate : 8 000 Hz
Frame rate : 7.813 FPS (1024 SPF)
Compression mode : Lossy
Source stream size : 23.9 KiB (0%)
Language : English
mdhd_Duration : 12132


Turbo-X-Action-Cam-Act-200-V3A

Άγιος Νικόλαος Εκκλησία στη Λάρισα  Ηπείρου 52, 412 22
St. Nicholas Church Larissa Greece

Turbo-x ACT-200 1280x720 60fps 15.8 Mb/s Action Cam




Format : MPEG-4
File size : 23.1 MiB
Duration : 11 s 765 ms
Overall bit rate mode : Variable
Overall bit rate : 16.5 Mb/s

Turbo-x ACT-200 1280x720 60fps

Video
ID : 1
Format : AVC
Format/Info : Advanced Video Codec
Format profile : Main@L5.1
Format settings : CABAC / 1 Ref Frames
Format settings, CABAC : Yes
Format settings, RefFrames : 1 frame
Format settings, GOP : M=1, N=60
Codec ID : avc1
Codec ID/Info : Advanced Video Coding
Duration : 11 s 765 ms
Source duration : 11 s 749 ms
Bit rate : 15.8 Mb/s
Width : 1 280 pixels
Height : 720 pixels
Display aspect ratio : 16:9
Frame rate : 60.000 FPS
Color space : YUV
Chroma subsampling : 4:2:0
Bit depth : 8 bits
Scan type : Progressive
Bits/(Pixel*Frame) : 0.285
Stream size : 22.1 MiB (96%)
Source stream size : 22.1 MiB (96%)
Language : English
Color range : Limited
Color primaries : BT.601 PAL
Transfer characteristics : BT.601
Matrix coefficients : BT.470 System B/G
mdhd_Duration : 11765
Codec configuration box : avcC

Audio
ID : 2
Format : AAC LC
Format/Info : Advanced Audio Codec Low Complexity
Codec ID : mp4a-40-2
Duration : 11 s 765 ms
Source duration : 11 s 136 ms
Bit rate mode : Variable
Channel(s) : 1 channel
Channel layout : C
Sampling rate : 8 000 Hz
Frame rate : 7.813 FPS (1024 SPF)
Compression mode : Lossy
Source stream size : 23.1 KiB (0%)
Language : English
mdhd_Duration : 11765

Turbo-X-Action-Cam-Act-200-V3A
Άγιος Νικόλαος Εκκλησία στη Λάρισα  Ηπείρου 52, 412 22
St. Nicholas Church Larissa Greece

Turbo-x ACT-200 1280x720 120fps 19.1 Mb/s Action Cam



Format : MPEG-4
File size : 26.7 MiB
Duration : 11 s 265 ms
Overall bit rate mode : Variable
Overall bit rate : 19.9 Mb/s

Turbo-x ACT-200 1280x720 120fps

Video
ID : 1
Format : AVC
Format/Info : Advanced Video Codec
Format profile : Main@L5.1
Format settings : CABAC / 1 Ref Frames
Format settings, CABAC : Yes
Format settings, RefFrames : 1 frame
Codec ID : avc1
Codec ID/Info : Advanced Video Coding
Duration : 11 s 265 ms
Source duration : 11 s 257 ms
Bit rate : 19.1 Mb/s
Width : 1 280 pixels
Height : 720 pixels
Display aspect ratio : 16:9
Frame rate : 120.018 FPS
Color space : YUV
Chroma subsampling : 4:2:0
Bit depth : 8 bits
Scan type : Progressive
Bits/(Pixel*Frame) : 0.173
Stream size : 25.7 MiB (96%)
Source stream size : 25.7 MiB (96%)
Language : English
Color range : Limited
Color primaries : BT.601 PAL
Transfer characteristics : BT.601
Matrix coefficients : BT.470 System B/G
mdhd_Duration : 11265
Codec configuration box : avcC

Audio
ID : 2
Format : AAC LC
Format/Info : Advanced Audio Codec Low Complexity
Codec ID : mp4a-40-2
Duration : 11 s 265 ms
Source duration : 10 s 752 ms
Bit rate mode : Variable
Channel(s) : 1 channel
Channel layout : C
Sampling rate : 8 000 Hz
Frame rate : 7.813 FPS (1024 SPF)
Compression mode : Lossy
Source stream size : 22.1 KiB (0%)
Language : English
mdhd_Duration : 11265

Turbo-X-Action-Cam-Act-200-V3A
Άγιος Νικόλαος Εκκλησία στη Λάρισα  Ηπείρου 52, 412 22
St. Nicholas Church Larissa Greece

Turbo-x ACT-200 1920x1080 30fps FHD 15.8 Mb/s Action Cam



Format                                   : MPEG-4
File size                                : 22.3 MiB
Duration                                 : 11 s 299 ms
Overall bit rate mode                    : Variable
Overall bit rate                         : 16.6 Mb/s

Turbo-x ACT-200 1920x1080 30fps

Video
ID                                       : 1
Format                                   : AVC
Format/Info                              : Advanced Video Codec
Format profile                           : Main@L5.1
Format settings                          : CABAC / 1 Ref Frames
Format settings, CABAC                   : Yes
Format settings, RefFrames               : 1 frame
Format settings, GOP                     : M=1, N=30
Codec ID                                 : avc1
Codec ID/Info                            : Advanced Video Coding
Duration                                 : 11 s 299 ms
Source duration                          : 11 s 266 ms
Bit rate                                 : 15.8 Mb/s
Width                                    : 1 920 pixels
Height                                   : 1 080 pixels
Display aspect ratio                     : 16:9
Frame rate                               : 30.000 FPS
Color space                              : YUV
Chroma subsampling                       : 4:2:0
Bit depth                                : 8 bits
Scan type                                : Progressive
Bits/(Pixel*Frame)                       : 0.255
Stream size                              : 21.3 MiB (95%)
Source stream size                       : 21.3 MiB (95%)
Language                                 : English
Color range                              : Limited
Color primaries                          : BT.601 PAL
Transfer characteristics                 : BT.601
Matrix coefficients                      : BT.470 System B/G
mdhd_Duration                            : 11299
Codec configuration box                  : avcC

Audio
ID                                       : 2
Format                                   : AAC LC
Format/Info                              : Advanced Audio Codec Low Complexity
Codec ID                                 : mp4a-40-2
Duration                                 : 11 s 299 ms
Source duration                          : 10 s 624 ms
Bit rate mode                            : Variable
Channel(s)                               : 1 channel
Channel layout                           : C
Sampling rate                            : 8 000 Hz
Frame rate                               : 7.813 FPS (1024 SPF)
Compression mode                         : Lossy
Source stream size                       : 21.9 KiB (0%)
Language                                 : English
mdhd_Duration                            : 11299

Turbo-X-Action-Cam-Act-200-V3A
Άγιος Νικόλαος Εκκλησία στη Λάρισα  Ηπείρου 52, 412 22
St. Nicholas Church Larissa Greece

Turbo-x ACT-200 1920x1080 60fps FHD 21.6 Mb/s Action Cam



Format                                   : MPEG-4
File size                                : 29.7 MiB
Duration                                 : 11 s 132 ms
Overall bit rate mode                    : Variable
Overall bit rate                         : 22.4 Mb/s

Turbo-x ACT-200 1920x1080 60fps FHD

Video
ID                                       : 1
Format                                   : AVC
Format/Info                              : Advanced Video Codec
Format profile                           : Main@L5.1
Format settings                          : CABAC / 1 Ref Frames
Format settings, CABAC                   : Yes
Format settings, RefFrames               : 1 frame
Codec ID                                 : avc1
Codec ID/Info                            : Advanced Video Coding
Duration                                 : 11 s 132 ms
Source duration                          : 11 s 116 ms
Bit rate                                 : 21.6 Mb/s
Width                                    : 1 920 pixels
Height                                   : 1 080 pixels
Display aspect ratio                    16 : 9
Frame rate                               : 60.000 FPS
Color space                              : YUV
Chroma subsampling                       : 4:2:0
Bit depth                                : 8 bits
Scan type                                : Progressive
Bits/(Pixel*Frame)                       : 0.174
Stream size                              : 28.7 MiB (97%)
Source stream size                       : 28.7 MiB (97%)
Language                                 : English
Color range                              : Limited
Color primaries                          : BT.601 PAL
Transfer characteristics                 : BT.601
Matrix coefficients                      : BT.470 System B/G
mdhd_Duration                            : 11132
Codec configuration box                  : avcC

Audio
ID                                       : 2
Format                                   : AAC LC
Format/Info                              : Advanced Audio Codec Low Complexity
Codec ID                                 : mp4a-40-2
Duration                                 : 11 s 132 ms
Source duration                          : 10 s 496 ms
Bit rate mode                            : Variable
Channel(s)                               : 1 channel
Channel layout                           : C
Sampling rate                            : 8 000 Hz
Frame rate                               : 7.813 FPS (1024 SPF)
Compression mode                         : Lossy
Source stream size                       : 22.8 KiB (0%)
Language                                 : English
mdhd_Duration                            : 11132

Turbo-X-Action-Cam-Act-200-V3A

Άγιος Νικόλαος Εκκλησία στη Λάρισα  Ηπείρου 52, 412 22
St. Nicholas Church Larissa Greece

Turbo-x ACT-200 2.7K 30fps 19.4 Mb/s Action Cam



Format : MPEG-4
File size : 26.4 MiB
Duration : 10 s 966 ms
Overall bit rate mode : Variable
Overall bit rate : 20.2 Mb/s

Turbo-x ACT-200 2.7K 30fps

Video
ID : 1
Format : AVC
Format/Info : Advanced Video Codec
Format profile : Main@L5.1
Format settings : CABAC / 1 Ref Frames
Format settings, CABAC : Yes
Format settings, RefFrames : 1 frame
Codec ID : avc1
Codec ID/Info : Advanced Video Coding
Duration : 10 s 966 ms
Source duration : 10 s 933 ms
Bit rate : 19.4 Mb/s
Width : 2 688 pixels
Height : 1 520 pixels
Display aspect ratio : 16:9
Frame rate : 30.000 FPS
Color space : YUV
Chroma subsampling : 4:2:0
Bit depth : 8 bits
Scan type : Progressive
Bits/(Pixel*Frame) : 0.159
Stream size : 25.4 MiB (96%)
Source stream size : 25.4 MiB (96%)
Language : English
Color range : Limited
Color primaries : BT.601 PAL
Transfer characteristics : BT.601
Matrix coefficients : BT.470 System B/G
mdhd_Duration : 10966
Codec configuration box : avcC

Audio
ID : 2
Format : AAC LC
Format/Info : Advanced Audio Codec Low Complexity
Codec ID : mp4a-40-2
Duration : 10 s 966 ms
Source duration : 10 s 368 ms
Bit rate mode : Variable
Channel(s) : 1 channel
Channel layout : C
Sampling rate : 8 000 Hz
Frame rate : 7.813 FPS (1024 SPF)
Compression mode : Lossy
Source stream size : 22.4 KiB (0%)
Language : English
mdhd_Duration : 10966

Turbo-X-Action-Cam-Act-200-V3A

Άγιος Νικόλαος Εκκλησία στη Λάρισα  Ηπείρου 52, 412 22
St. Nicholas Church Larissa Greece

Turbo-x ACT-200 UHD 4K 30fps 14.0 Mb/s Action Cam



Format : MPEG-4
File size : 19.7 MiB
Duration : 11 s 166 ms
Overall bit rate mode : Variable
Overall bit rate : 14.8 Mb/s

Turbo-x ACT-200 4K 30fps UHD

Video
ID : 1
Format : AVC
Format/Info : Advanced Video Codec
Format profile : Main@L5.1
Format settings : CABAC / 1 Ref Frames
Format settings, CABAC : Yes
Format settings, RefFrames : 1 frame
Codec ID : avc1
Codec ID/Info : Advanced Video Coding
Duration : 11 s 166 ms
Source duration : 11 s 133 ms
Bit rate : 14.0 Mb/s
Width : 3 840 pixels
Height : 2 160 pixels
Display aspect ratio : 16:9
Frame rate : 30.000 FPS
Color space : YUV
Chroma subsampling : 4:2:0
Bit depth : 8 bits
Scan type : Progressive
Bits/(Pixel*Frame) : 0.056
Stream size : 18.7 MiB (95%)
Source stream size : 18.7 MiB (95%)
Language : English
Color range : Limited
Color primaries : BT.601 PAL
Transfer characteristics : BT.601
Matrix coefficients : BT.470 System B/G
mdhd_Duration : 11166
Codec configuration box : avcC

Audio
ID : 2
Format : AAC LC
Format/Info : Advanced Audio Codec Low Complexity
Codec ID : mp4a-40-2
Duration : 11 s 166 ms
Source duration : 10 s 624 ms
Bit rate mode : Variable
Channel(s) : 1 channel
Channel layout : C
Sampling rate : 8 000 Hz
Frame rate : 7.813 FPS (1024 SPF)
Compression mode : Lossy
Source stream size : 22.3 KiB (0%)
Language : English
mdhd_Duration : 11166

Turbo-X-Action-Cam-Act-200-V3A
Άγιος Νικόλαος Εκκλησία στη Λάρισα  Ηπείρου 52, 412 22
St. Nicholas Church Larissa Greece

JVC everio GZ-HD620 product video 4K 25fps



GZ-HD620 JVC everio product video 1920x1080 to 4K 25fps upgraded
from GZ-HD620BEK internal hard drive.



Format : MPEG-4
File size : 243 MiB
Duration : 1 min 15 s
Overall bit rate mode : Variable
Overall bit rate : 27.0 Mb/s
Writing application : Lavf55.33.100

Video
ID : 1
Format : AVC
Format/Info : Advanced Video Codec
Format profile : High@L5.1
Format settings : CABAC / 3 Ref Frames
Format settings, CABAC : Yes
Format settings, RefFrames : 3 frames
Codec ID : avc1
Codec ID/Info : Advanced Video Coding
Duration : 1 min 14 s
Bit rate : 27.0 Mb/s
Width : 3 840 pixels
Height : 2 160 pixels
Display aspect ratio : 16:9
Frame rate mode : Constant
Frame rate : 25.000 FPS
Color space : YUV
Chroma subsampling : 4:2:0
Bit depth : 8 bits
Scan type : Progressive
Bits/(Pixel*Frame) : 0.130
Stream size : 242 MiB (99%)
Writing library : x264 core 142 r2455 021c0dc
Encoding settings : cabac=1 / ref=3 / deblock=1:0:0 / analyse=0x3:0x113 / me=hex / subme=7 / psy=1 / psy_rd=1.00:0.00 / mixed_ref=1 / me_range=16 / chroma_me=1 / trellis=1 / 8x8dct=1 / cqm=0 / deadzone=21,11 / fast_pskip=1 / chroma_qp_offset=-4 / threads=4 / lookahead_threads=1 / sliced_threads=0 / nr=0 / decimate=1 / interlaced=0 / bluray_compat=0 / constrained_intra=0 / bframes=0 / weightp=2 / keyint=250 / keyint_min=25 / scenecut=40 / intra_refresh=0 / rc=crf / mbtree=0 / crf=23.0 / qcomp=0.60 / qpmin=4 / qpmax=69 / qpstep=4 / ip_ratio=1.40 / aq=1:1.00
Codec configuration box : avcC

Audio
ID : 2
Format : AAC LC
Format/Info : Advanced Audio Codec Low Complexity
Codec ID : mp4a-40-2
Duration : 1 min 15 s
Bit rate mode : Variable
Bit rate : 156 kb/s
Maximum bit rate : 320 kb/s
Channel(s) : 2 channels
Channel layout : L R
Sampling rate : 48.0 kHz
Frame rate : 46.875 FPS (1024 SPF)
Compression mode : Lossy
Stream size : 1.40 MiB (1%)

JVC GC-FM1BE HD memory camera Disassembled

Disassembled JVC GC-FM1 High definition 1440 x1080 camera.
Inside boards and connections.

1/3.2-inch 8 Megapixel CMOS
4x Digital Zoom
Memory Card Slot for SDHC/SD
Software provided (for Windows (R))
1080P HD Video Recording
8 Megapixel Still Image Shooting

Video: with Samsung NX-1100 20.3mp HD 1920 x 834 24fps (1.30)
Shutter 1/30 ISO 400
Lens: Super Paragon PMC II AUTO
APERTURE (F) f/3.5
FOCAL LENGTH (MM) f=24mm  (FORMAT 35 mm full frame)
FOCAL LENGTH (MM) f=36mm  (FOCAL LENGTH APS-C)
FILTER DIAMETER (MM)  52mm
MINIMUM FOCUS DISTANCE 0.17m to Infinity.
CANON FD Mount adapted to NX Samsung

Samsung LE40A536T1F inside view circuits

https://youtu.be/4T7YQNXWEc0?t=2 Samsung LE40A536T1F internal view
interno del LE40A536T1F

Samsung LE40A536T1F at no signal. Distorted sound with 50hz





senza antenna assenza di segnale analogico
Distorted sound with 50hz
suono distorto 50HZ

Samsung LE40A536T1F only menu. Distorted sound with 50hz

Samsung LE40A536T1F only menu
con menu
Distorted sound with 50hz
suono distorto 50HZ

SAMSUNG LE40A536T1F with menu. Distorted sound with 50hz





SAMSUNG LE40A536T1F with menu distorted sound with 50hz 
con menu
suono distorto 50HZ

SAMSUNG LE40A536T1F connected with HDMI

SAMSUNG LE40A536T1F connected wioth HDMI
SUONO DISTORTO 50HZ
con hdmi
defect

Genova città deserta Seconda parte rimaniamo a casa Μένουμε Σπίτι και εμείς

rimaniamo a casa Seconda parte Genova città deserta #StayHome Γένοβα δεύτερο μέρος Μένουμε Σπίτι και εμείς 2nd Part desert Genoa Geno...