Full moon Creative Style Portrait -3-3-3 Sony NEX-5R with with PARAGON f/8 500mm Ø72 T2 to NEX


 
Full moon Creative Style  Crtv-S Portrait -3-3-3 
Filming Location: Larissa , Greece.
Camera : Sony NEX 5R 16.1 Mp 
Crop factor 1.5
Lens: PARAGON f/8 500mm Ø72 T2 - @ f/8 
Mode : M  ISO 200 EV 0,0  (1/500) creative style Portrait -3-3-3
Video Stabilization OFF Video 1920x1080 @ 50fps
T2 adapted to NEX 

Don’t forget to Subscribe and  click the bell to turn on post notifications!

Nikolaos Instagram: https://www.instagram.com/sakellarisnikolaos/
Twitter: https://twitter.com/SakellarisNiko
Facebook: https://www.facebook.com/nikolaos.sakellaris/
Blog: https://video-photo-blog.blogspot.com/


Complete name : AVCHD\BDMV\STREAM\00112.MTS 
Format : BDAV 
Format/Info : Blu-ray Video 
File size : 212 MiB 
Duration : 1 min 7 s 
Overall bit rate mode : Variable 
Overall bit rate : 26.5 Mb/s 
Maximum Overall bit rate : 28.0 Mb/s 
Recorded date : 2020-03-10 06:28:51+02:00 
Writing application : Sony NEX-5R 

Video 
ID : 4113 (0x1011) 
Menu ID : 1 (0x1) 
Format : AVC 
Format/Info : Advanced Video Codec 
Format profile : High@L4.2 
Format settings : CABAC / 2 Ref Frames 
Format settings, CABAC : Yes 
Format settings, Reference frames : 2 frames 
Format settings, GOP : M=1, N=12 
Codec ID : 27 
Duration : 1 min 7 s 
Bit rate mode : Variable 
Bit rate : 25.2 Mb/s 
Maximum bit rate : 26.0 Mb/s 
Width : 1 920 pixels 
Height : 1 080 pixels 
Display aspect ratio : 16:9 
Frame rate : 50.000 FPS 
Color space : YUV 
Chroma subsampling : 4:2:0 
Bit depth : 8 bits 
Scan type : Progressive 
Bits/(Pixel*Frame) : 0.243 
Stream size : 202 MiB (95%) 
IrisFNumber : 0.000000 

Audio 
ID : 4352 (0x1100) 
Menu ID : 1 (0x1) 
Format : AC-3 
Format/Info : Audio Coding 3 
Commercial name : Dolby Digital 
Codec ID : 129 
Duration : 1 min 7 s 
Bit rate mode : Constant 
Bit rate : 256 kb/s 
Channel(s) : 2 channels 
Channel layout : L R 
Sampling rate : 48.0 kHz 
Frame rate : 31.250 FPS (1536 SPF) 
Compression mode : Lossy 
Stream size : 2.05 MiB (1%) 
Service kind : Complete Main 

Text 
ID : 4608 (0x1200) 
Menu ID : 1 (0x1) 
Format : PGS 
Codec ID : 144 
Duration : 1 min 6 s

Creative Style Sunset Sony NEX-5R with OLYMPUS OM-SYSTEM ZUIKO MC AUTO-S 1:1,8 F=50mm OM to NEX




Creative Style  Crtv-S Sunset 
Filming Location: Larissa , Greece.
Camera : Sony NEX 5R 16.1 Mp 
Crop factor 1.5
Lens : OLYMPUS OM-SYSTEM ZUIKO MC AUTO-S 1:1.8 F=50mm @1.8
Mode : A  ISO 100 EV 0,0  (1/800 -1/4000) creative style Sunset  0 0 0
Video Stabilization OFF Video 1920x1080 @ 50fps
OM adapted to NEX 

Don’t forget to Subscribe and  click the bell to turn on post notifications!

Nikolaos Instagram: https://www.instagram.com/sakellarisnikolaos/
Twitter: https://twitter.com/SakellarisNiko
Facebook: https://www.facebook.com/nikolaos.sakellaris/
Blog: https://video-photo-blog.blogspot.com/
 
Complete name : AVCHD\BDMV\STREAM\00104.MTS 
Format : BDAV 
Format/Info : Blu-ray Video 
File size : 211 MiB 
Duration : 1 min 6 s 
Overall bit rate mode : Variable 
Overall bit rate : 26.5 Mb/s 
Maximum Overall bit rate : 28.0 Mb/s 
Recorded date : 2020-03-06 18:11:19+02:00 
Writing application : Sony NEX-5R 

Video 
ID : 4113 (0x1011) 
Menu ID : 1 (0x1) 
Format : AVC 
Format/Info : Advanced Video Codec 
Format profile : High@L4.2 
Format settings : CABAC / 2 Ref Frames 
Format settings, CABAC : Yes 
Format settings, Reference frames : 2 frames 
Format settings, GOP : M=1, N=12 
Codec ID : 27 
Duration : 1 min 6 s 
Bit rate mode : Variable 
Bit rate : 25.2 Mb/s 
Maximum bit rate : 26.0 Mb/s 
Width : 1 920 pixels 
Height : 1 080 pixels 
Display aspect ratio : 16:9 
Frame rate : 50.000 FPS 
Color space : YUV 
Chroma subsampling : 4:2:0 
Bit depth : 8 bits 
Scan type : Progressive 
Bits/(Pixel*Frame) : 0.243 
Stream size : 200 MiB (95%) 
IrisFNumber : 0.000000 

Audio 
ID : 4352 (0x1100) 
Menu ID : 1 (0x1) 
Format : AC-3 
Format/Info : Audio Coding 3 
Commercial name : Dolby Digital 
Codec ID : 129 
Duration : 1 min 6 s 
Bit rate mode : Constant 
Bit rate : 256 kb/s 
Channel(s) : 2 channels 
Channel layout : L R 
Sampling rate : 48.0 kHz 
Frame rate : 31.250 FPS (1536 SPF) 
Compression mode : Lossy 
Stream size : 2.04 MiB (1%) 
Service kind : Complete Main 

Text 
ID : 4608 (0x1200) 
Menu ID : 1 (0x1) 
Format : PGS 
Codec ID : 144 
Duration : 1 min 6 s

Sony NEX-5R with AUTO CHINON 1:1.9 50 mm pk to nex d-range DRO Lv5 creative style Portrait -3-3-3



Windy day with nice silver clouds over the Olympus. mountain. Filming Location: Larissa , Greece. Camera : Sony NEX 5R 16.1 Mp Crop factor 1.5 Lens : AUTO CHINON 1:1.9 50 mm Ø49 pk @ f/4 75mm equivalent 35mm Mode : A ISO 100 EV 0,0 (1/1000 -1/4000) d-range DRO Lv5 creative style Portrait -3-3-3 Video Stabilization OFF Video 1920x1080 @ 50fps Pk adapted to NEX Don’t forget to click the bell to turn on post notifications! Nikolaos Instagram: https://www.instagram.com/sakellarisnikolaos/ Twitter: https://twitter.com/SakellarisNiko Facebook: https://www.facebook.com/nikolaos.sakellaris/ Blog: https://video-photo-blog.blogspot.com/ Complete name : AVCHD\BDMV\STREAM\00068.MTS Format : BDAV Format/Info : Blu-ray Video File size : 325 MiB Duration : 1 min 42 s Overall bit rate mode : Variable Overall bit rate : 26.5 Mb/s Maximum Overall bit rate : 28.0 Mb/s Recorded date : 2020-02-27 17:37:12+02:00 Writing application : Sony NEX-5R Video ID : 4113 (0x1011) Menu ID : 1 (0x1) Format : AVC Format/Info : Advanced Video Codec Format profile : High@L4.2 Format settings : CABAC / 2 Ref Frames Format settings, CABAC : Yes Format settings, Reference frames : 2 frames Format settings, GOP : M=1, N=12 Codec ID : 27 Duration : 1 min 42 s Bit rate mode : Variable Bit rate : 25.2 Mb/s Maximum bit rate : 26.0 Mb/s Width : 1 920 pixels Height : 1 080 pixels Display aspect ratio : 16:9 Frame rate : 50.000 FPS Color space : YUV Chroma subsampling : 4:2:0 Bit depth : 8 bits Scan type : Progressive Bits/(Pixel*Frame) : 0.243 Stream size : 309 MiB (95%) IrisFNumber : 0.000000

How to update Firmware on Sony NEX-5R camera to version 1.03 from 1.00




this video will help you how to update your NEX 5R camera to the newest firmware.
 on Sony NEX 5R Camera to version 1.03 from 1.00.
 By updating your NEX with the newest firmaware you will add the following features to your NEX 

Provides support for the following Fast Hybrid AF compliant and future compatible E mount lenses:
SELP18105G, SEL35F28Z, SEL55F18Z, SEL2470Z, SEL2870, SEL70200G
Note:For the following lenses, the Fast Hybrid AF is effective only in the central area of the frame.
SEL35F28Z, SEL55F18Z, SEL2470Z, SEL2870, SEL70200G
Provides support for the SEL20F28 and SEL1670Z Fast Hybrid AF compliant lenses
Adds the AF drive system for movies
Note:The AF drive system for movies is added in order to enhance the scalability of future E-mount systems.
Provides support for the following Fast Hybrid AF compliant lenses:
SEL1018, SEL35F18, SELP18200, SEL30M35, SEL50F18, SEL18200LE
Note:When using the SEL30M35, SEL50F18, and SEL18200LE lenses,
 please update the lens firmware to the latest available version.

File Name Update_NEX5RV103.exe
File Version 1.03
File Size 179.51 MB
Release Date 03-18-2014

Don’t forget to click the bell to turn on post notifications!

Nikolaos Instagram: https://www.instagram.com/sakellarisnikolaos/
Twitter: https://twitter.com/SakellarisNiko
Facebook: https://www.facebook.com/nikolaos.sakellaris/
Blog: https://video-photo-blog.blogspot.com/

filmed in 4k with Panasonic Lumix GX-80 & Lumix H-FS14140 14-140mm
Nikolaos Sakellaris


Confirm the firmware version of your camera

Follow the instructions
If the firmware version is Ver.1.03 or later, the update is not required.

Select Menu--) Setup--) Versionon the camera.
The firmware version is displayed as illustrated below.

Note:Please close all other application software before updating the firmware.
Power source for the camera
Fully charged rechargeable battery pack NP-FW50
USB cable supplied with the camera

Download

Do not remove the battery during the update;otherwise,
 the camera may become inoperable due to the sudden power shutdown.
Remove the memory card from the camera beforehand.

Download the Firmware Updater
Make sure that you are logged on as a user with administrative rights.
After reading the disclaimer, click the [Download] button below.
The download of the [Update_NEX5RV103.exe] file (179 MB (188.231.768 bytes)) will start.
Save the file on your computer.

Install
Close all currently running programs on your computer.
Double-click the [Update_NEX5RV103.exe] file you downloaded to start up the Firmware Updater.
 The Firmware Updater window will appear.

According to the instruction on the Firmware Updater window, select Menu--) Setup--)
 USB Connectionon the camera, and check if Mass Storageis selected.
If another mode than Mass Storageis selected, please select Mass Storage.

Connect the camera to the computer with the supplied USB cable, the LCD screen of the camera will turn off.
 Please proceed to the next step.

Click Nexton the Firmware Updater window. In the computer screen the following window will appear:

At the same time the message "Follow computer instructions" will appear on the LCD screen of the camera.
 -From this point don't turn off the camera until the firmware update is completed.
Click Next. 
The current version and the version after the update appear on the lower left part of the Firmware Updater .

Click Nexton the Firmware Updater window.
After resetting, the reconnection of the camera is verified, and the following window appears:

Click Runto start the update. The progress bar will appear while updating (approximately for 15 minutes).
 -don't turn off the camera nor disconnect the USB cable while updating.
When the update is completed, the following window will appear. 
Click Finishand disconnect the USB cable.
Note: after clicking [Finish], be sure to wait for the camera to turn on again
 although there may be cases that it takes a few minutes.

Turn off the camera, remove the battery pack and/or the AC adapter,
 reinsert the battery or reconnect the AC adapter and turn on the camera.
Confirm the firmware version of your camera is Ver 1.03.
On the camera select Menu--) Setup--) Version.
The firmware version is displayed as illustrated below.

Golden clouds in a sky at sunset - Sony NEX 5R with Sony E 18-55 OSS iso 100 @ 18mm f/8 50p




Golden clouds in a sky at sunset over the city of Larissa Camera : Sony NEX 5R in mode M auto iso 100 1/100 stabilazer IS ON focus to the clouds Lens: Sony E 3.5-5.6 / 18-55 OSS Ø49 @ 18mm f/8 video test 1920 1080 50p Don’t forget to click the bell to turn on post notifications! Nikolaos Instagram: https://www.instagram.com/sakellarisnikolaos/ Twitter: https://twitter.com/SakellarisNiko Facebook: https://www.facebook.com/nikolaos.sakellaris/ Blog: https://video-photo-blog.blogspot.com/ Sony NEX 5R Sony E 3.5-5.6 / 18-55 Dramatic and picturesque evening scene. Complete name : AVCHD\BDMV\STREAM\00030.MTS Format : BDAV Format/Info : Blu-ray Video File size : 209 MiB Duration : 1 min 6 s Overall bit rate mode : Variable Overall bit rate : 26.5 Mb/s Maximum Overall bit rate : 28.0 Mb/s Recorded date : 2020-02-22 19:10:39+02:00 Writing application : Sony NEX-5R Video ID : 4113 (0x1011) Menu ID : 1 (0x1) Format : AVC Format/Info : Advanced Video Codec Format profile : High@L4.2 Format settings : CABAC / 2 Ref Frames Format settings, CABAC : Yes Format settings, Reference frames : 2 frames Format settings, GOP : M=1, N=12 Codec ID : 27 Duration : 1 min 6 s Bit rate mode : Variable Bit rate : 25.1 Mb/s Maximum bit rate : 26.0 Mb/s Width : 1 920 pixels Height : 1 080 pixels Display aspect ratio : 16:9 Frame rate : 50.000 FPS Color space : YUV Chroma subsampling : 4:2:0 Bit depth : 8 bits Scan type : Progressive Bits/(Pixel*Frame) : 0.243 Stream size : 199 MiB (95%) IrisFNumber : 8.000000 Audio ID : 4352 (0x1100) Menu ID : 1 (0x1) Format : AC-3 Format/Info : Audio Coding 3 Commercial name : Dolby Digital Codec ID : 129 Duration : 1 min 6 s Bit rate mode : Constant Bit rate : 256 kb/s Channel(s) : 2 channels Channel layout : L R Sampling rate : 48.0 kHz Frame rate : 31.250 FPS (1536 SPF) Compression mode : Lossy Stream size : 2.02 MiB (1%) Service kind : Complete Main Text ID : 4608 (0x1200) Menu ID : 1 (0x1) Format : PGS Codec ID : 144 Duration : 1 min 5 s

Grey Clouds over the city - Sony NEX 5R with Sony E 18-55 OSS iso 100 @ 18mm f/5.6 50p




Grey Clouds over the city of Larissa Camera : Sony NEX 5R in mode M auto iso 100 1/100 stabilazer IS ON focus to the clouds Lens: Sony E 3.5-5.6 / 18-55 OSS Ø49 @ 18mm f/5.6 video test 1920 1080 50p Don’t forget to click the bell to turn on post notifications! Nikolaos Instagram: https://www.instagram.com/sakellarisnikolaos/ Twitter: https://twitter.com/SakellarisNiko Facebook: https://www.facebook.com/nikolaos.sakellaris/ Blog: https://video-photo-blog.blogspot.com/ Sony NEX 5R Sony E 3.5-5.6 / 18-55 Complete name : AVCHD\BDMV\STREAM\00029.MTS Format : BDAV Format/Info : Blu-ray Video File size : 206 MiB Duration : 1 min 5 s Overall bit rate mode : Variable Overall bit rate : 26.4 Mb/s Maximum Overall bit rate : 28.0 Mb/s Recorded date : 2020-02-22 19:06:04+02:00 Writing application : Sony NEX-5R Video ID : 4113 (0x1011) Menu ID : 1 (0x1) Format : AVC Format/Info : Advanced Video Codec Format profile : High@L4.2 Format settings : CABAC / 2 Ref Frames Format settings, CABAC : Yes Format settings, Reference frames : 2 frames Format settings, GOP : M=1, N=12 Codec ID : 27 Duration : 1 min 5 s Bit rate mode : Variable Bit rate : 25.1 Mb/s Maximum bit rate : 26.0 Mb/s Width : 1 920 pixels Height : 1 080 pixels Display aspect ratio : 16:9 Frame rate : 50.000 FPS Color space : YUV Chroma subsampling : 4:2:0 Bit depth : 8 bits Scan type : Progressive Bits/(Pixel*Frame) : 0.242 Stream size : 195 MiB (95%) IrisFNumber : 5.600000 Audio ID : 4352 (0x1100) Menu ID : 1 (0x1) Format : AC-3 Format/Info : Audio Coding 3 Commercial name : Dolby Digital Codec ID : 129 Duration : 1 min 5 s Bit rate mode : Constant Bit rate : 256 kb/s Channel(s) : 2 channels Channel layout : L R Sampling rate : 48.0 kHz Frame rate : 31.250 FPS (1536 SPF) Compression mode : Lossy Stream size : 1.99 MiB (1%) Service kind : Complete Main Text ID : 4608 (0x1200) Menu ID : 1 (0x1) Format : PGS Codec ID : 144 Duration : 1 min 4 s

Sunset Full of Clouds - Sony NEX 5R with Sony E 18-55 OSS iso 100 @ 55mm f/8




Sunset Full of Clouds Larissa Greece Camera : Sony NEX 5R in mode M auto iso 100 1/100 stabilazer IS ON focus to the clouds Lens: Sony E 3.5-5.6 / 18-55 OSS Ø49 @ 55mm f/8 video test 1920 1080 50p Don’t forget to click the bell to turn on post notifications! Nikolaos Instagram: https://www.instagram.com/sakellarisnikolaos/ Twitter: https://twitter.com/SakellarisNiko Facebook: https://www.facebook.com/nikolaos.sakellaris/ Blog: https://video-photo-blog.blogspot.com/ Sony NEX 5R Sony E 3.5-5.6 / 18-55 Complete name : AVCHD\BDMV\STREAM\00028.MTS Format : BDAV Format/Info : Blu-ray Video File size : 261 MiB Duration : 1 min 22 s Overall bit rate mode : Variable Overall bit rate : 26.5 Mb/s Maximum Overall bit rate : 28.0 Mb/s Recorded date : 2020-02-22 19:03:33+02:00 Writing application : Sony NEX-5R Video ID : 4113 (0x1011) Menu ID : 1 (0x1) Format : AVC Format/Info : Advanced Video Codec Format profile : High@L4.2 Format settings : CABAC / 2 Ref Frames Format settings, CABAC : Yes Format settings, Reference frames : 2 frames Format settings, GOP : M=1, N=12 Codec ID : 27 Duration : 1 min 22 s Bit rate mode : Variable Bit rate : 25.2 Mb/s Maximum bit rate : 26.0 Mb/s Width : 1 920 pixels Height : 1 080 pixels Display aspect ratio : 16:9 Frame rate : 50.000 FPS Color space : YUV Chroma subsampling : 4:2:0 Bit depth : 8 bits Scan type : Progressive Bits/(Pixel*Frame) : 0.243 Stream size : 248 MiB (95%) IrisFNumber : 8.000000 Audio ID : 4352 (0x1100) Menu ID : 1 (0x1) Format : AC-3 Format/Info : Audio Coding 3 Commercial name : Dolby Digital Codec ID : 129 Duration : 1 min 22 s Bit rate mode : Constant Bit rate : 256 kb/s Channel(s) : 2 channels Channel layout : L R Sampling rate : 48.0 kHz Frame rate : 31.250 FPS (1536 SPF) Compression mode : Lossy Stream size : 2.52 MiB (1%) Service kind : Complete Main Text ID : 4608 (0x1200) Menu ID : 1 (0x1) Format : PGS Codec ID : 144 Duration : 1 min 22 s

Genova città deserta Seconda parte rimaniamo a casa Μένουμε Σπίτι και εμείς

rimaniamo a casa Seconda parte Genova città deserta #StayHome Γένοβα δεύτερο μέρος Μένουμε Σπίτι και εμείς 2nd Part desert Genoa Geno...