Clouds Timelapse : Lumix SZ7 f/3.1 1080 30fps AVC 14.1 MP




Clouds Timelapse Larissa
Camera : 14.1 MP Lumix SZ7 video test
Focal length (equiv.) 25–250 mm
Maximum aperture F3.1–5.9
Iso 100 AF f/3.1 1920 x 1080 30fps
Stabilazer OFF
Rec Mode Miniature Effect

Timelapse Lumix SZ7
Complete name : PANASONIC\SZ7\STREAM\00002.MTS
Format : BDAV
Format/Info : Blu-ray Video
File size : 233 MiB
Duration : 2 min 55 s
Overall bit rate mode : Variable
Overall bit rate : 11.1 Mb/s
Maximum Overall bit rate : 18.0 Mb/s
Recorded date : 2017-12-10 15:42:46+00:00
Writing application : Panasonic

Video
ID : 4113 (0x1011)
Menu ID : 1 (0x1)
Format : AVC
Format/Info : Advanced Video Codec
Format profile : High@L4
Format settings : 2 Ref Frames
Format settings, CABAC : No
Format settings, Reference frames : 2 frames
Format settings, GOP : M=3, N=12
Codec ID : 27
Duration : 2 min 55 s
Bit rate mode : Variable
Bit rate : 10.5 Mb/s
Maximum bit rate : 16.0 Mb/s
Width : 1 920 pixels
Height : 1 080 pixels
Display aspect ratio : 16:9
Frame rate : 25.000 FPS
Color space : YUV
Chroma subsampling : 4:2:0
Bit depth : 8 bits
Scan type : Interlaced
Scan type, store method : Separated fields
Scan order : Top Field First
Bits/(Pixel*Frame) : 0.202
Stream size : 219 MiB (94%)

Audio
ID : 4352 (0x1100)
Menu ID : 1 (0x1)
Format : AC-3
Format/Info : Audio Coding 3
Commercial name : Dolby Digital
Codec ID : 129
Duration : 2 min 55 s
Bit rate mode : Constant
Bit rate : 192 kb/s
Channel(s) : 2 channels
Channel layout : L R
Sampling rate : 48.0 kHz
Frame rate : 31.250 FPS (1536 SPF)
Compression mode : Lossy
Stream size : 4.02 MiB (2%)
Service kind : Complete Main

Text
ID : 4608 (0x1200)
Menu ID : 1 (0x1)
Format : PGS
Codec ID : 144
Duration : 2 min 55 s

Sunset : Lumix SZ7 f/3.1 1080 30fps MP4 Stereo 14.1 MP




Sunset Larissa
Camera : 14.1 MP Lumix SZ7 video test
Focal length (equiv.) 25–250 mm
Maximum aperture F3.1–5.9
Iso 100 AF f/3.1 1920 x 1080 30fps
Stabilazer OFF
Rec Mode Normal


Complete name : PANASONIC\SZ7 9538\video\P1000056.MP4
Format : MPEG-4
Format profile : Base Media / Version 2
Codec ID : mp42 (mp42/avc1)
File size : 47.9 MiB
Duration : 1 min 3 s
Overall bit rate mode : Variable
Overall bit rate : 6 320 kb/s
Encoded date : UTC 2019-11-04 18:59:42
PANA : DMC-SZ7

Video
ID : 1
Format : AVC
Format/Info : Advanced Video Codec
Format profile : Baseline@L4
Format settings : 2 Ref Frames
Format settings, CABAC : No
Format settings, Reference frames : 2 frames
Format settings, GOP : M=1, N=8
Codec ID : avc1
Codec ID/Info : Advanced Video Coding
Duration : 1 min 3 s
Bit rate mode : Variable
Bit rate : 6 100 kb/s
Maximum bit rate : 24.0 Mb/s
Width : 1 920 pixels
Height : 1 080 pixels
Display aspect ratio : 16:9
Frame rate mode : Constant
Frame rate : 29.970 (30000/1001) FPS
Color space : YUV
Chroma subsampling : 4:2:0
Bit depth : 8 bits
Scan type : Progressive
Bits/(Pixel*Frame) : 0.098
Stream size : 46.2 MiB (97%)
Encoded date : UTC 2019-11-04 18:59:42
Tagged date : UTC 2019-11-04 18:59:42
Color primaries : BT.709
Transfer characteristics : BT.709
Matrix coefficients : BT.709
Codec configuration box : avcC

Audio
ID : 2
Format : AAC LC
Format/Info : Advanced Audio Codec Low Complexity
Codec ID : mp4a-40-2
Duration : 1 min 3 s
Source duration : 1 min 3 s
Bit rate mode : Constant
Bit rate : 128 kb/s
Channel(s) : 2 channels
Channel layout : L R
Sampling rate : 48.0 kHz
Frame rate : 46.875 FPS (1024 SPF)
Compression mode : Lossy
Stream size : 973 KiB (2%)
Source stream size : 973 KiB (2%)
Encoded date : UTC 2019-11-04 18:59:42

Εκδήλωση Westnet Distribution και HP Πέμπτη 24 Οκτωβρίου 2019 15:00 στο Φρούριο Λάρισας




H Westnet Distribution και η HP είχαν την τιμή να μας προσκαλέσουν στην εκδήλωση που πραγματοποιήθηκε την Πέμπτη 24 Οκτωβρίου 2019 στις 15:00 στο Φρούριο στη Λάρισα.

Είδαμε μαζί τις τελευταίες εξελίξεις στα προϊόντα της HP, τις ολοκληρωμένες υπηρεσίες που προσφέρει και πόσο μπορoύν να συμβάλουν στην αποδοτική και αποτελεσματική καθημερινή μας εργασία.

Genova città deserta Seconda parte rimaniamo a casa Μένουμε Σπίτι και εμείς

rimaniamo a casa Seconda parte Genova città deserta #StayHome Γένοβα δεύτερο μέρος Μένουμε Σπίτι και εμείς 2nd Part desert Genoa Geno...